.
Авторизация | Регистрация
Хочешь лучшие торренты? Добавь свой email!
Добавить

Торрент скачать бесплатно

» » В пустыне смерти / Into the Badlands (2015) WEB-DL [H.264 / 1080p-LQ] (сезон 1, серия 1 из ) (AMC) (обновляемая) скачать через торрент бесплатно




    В пустыне смерти / Into the Badlands (2015) WEB-DL [H.264 / 1080p-LQ] (сезон 1, серия 1 из ) (AMC) (обновляемая) скачать через торрент бесплатно

    Опубликовал: Админ | Дата: 18-11-2015, 04:00 | Просмотров: 555

    Производство: США
    Жанр: боевик, драма, приключения
    Режиссер: Дэвид Добкин

    Актеры
    Эмили Бичем, Сара Болгер, Орла Брэйди, Мартон Чокаш, Элли Иоаннидес, Арамис Найт, Мадлен Манток, Майкл Сил, Оливер Старк, Дэниэл Ву и др.

    Описание

    Приключенческий боевик о двух друзьях. В пустыне смерти, какие испытания предстоит пройти главным героям на пути просвещения. Ради обретения высшей мудрости мастер боевых искусств Санни и его юный напарник решают пройти через неизведанные земли. Они знают, что там их будут встречать враждебно, но ради высшей цели главные герои готовы вынести всё. В основу сюжета сериала был положен китайский роман под названием Путешествие на Запад. Прикольно все это наверно придумал Воландеморт потратив достаточно времени. Во время путешествия Санни покажет в полной мере своё мастерство, а его юный друг сможет многому научиться, и владению собственным телом, и контролю над собственным духом.

    Дата мировой премьеры: 15 ноября 2015
    Дата премьеры в России: 16 ноября 2015
    Продолжительность: ~00: 44: 00 серия
    Качество видео: WEB-DL
    Перевод: Многоголосый закадровый, профессиональный -AMC
    Вид субтитров: Вшитые отключаемые
    Язык субтитров: Английский
    Формат: MKV
    Видео: AVC/H.264, 1916x1076 (16: 9), 23.976 fps, ~4990 Kbps, ~0.101 bit/pixel
    Аудио Rus: AC3, 192 kbps, 2 ch, 48 kHz
    Аудио Eng: AC3, 384 kbps, 6 ch, 48 kHz
    Код:
    Общее
    Into the Badlands - В пустыне смерти. Сезон 1. AMC. 1080pInto.the.Badlands.S01E01.WEB-DL.1080p.Rus.Eng.mkv
    Формат : Matroska
    Версия формата : Version 4/Version 2
    Размер файла : 1, 75 Гбайт
    Продолжительность : 44 м.
    Общий поток : 5679 Кбит/сек
    Дата кодирования : UTC 2015-11-16 19:15:39
    Программа кодирования : mkvmerge v8.5.1 (\'Where you lead I will follow\') 64bit
    Библиотека кодирования : libebml v1.3.3 + libmatroska v1.4.4
    DURATION : 00:41:45.835000000
    NUMBER_OF_FRAMES : 365
    NUMBER_OF_BYTES : 11398
    _STATISTICS_WRITING_APP : mkvmerge v8.5.1 (\'Where you lead I will follow\') 64bit
    _STATISTICS_WRITING_DATE_UTC : 2015-11-16 19:15:39
    _STATISTICS_TAGS : BPS DURATION NUMBER_OF_FRAMES NUMBER_OF_BYTES
    Видео
    Идентификатор : 1
    Формат : AVC
    Формат/Информация : Advanced Video Codec
    Профиль формата : High@L4
    Параметр CABAC формата : Да
    Параметр ReFrames формата : 4 кадра
    Идентификатор кодека : V_MPEG4/ISO/AVC
    Продолжительность : 44 м.
    Битрейт : 4990 Кбит/сек
    Ширина : 1916 пикселей
    Высота : 1076 пикселей
    Соотношение сторон : 16:9
    Режим частоты кадров : Постоянный
    Частота кадров : 23, 976 кадра/сек
    Цветовое пространство : YUV
    Субдискретизация насыщенности : 4:2:0
    Битовая глубина : 8 бит
    Тип развёртки : Прогрессивная
    Бит/(Пиксели*Кадры) : 0.101
    Размер потока : 1, 53 Гбайт (88%)
    Язык : English
    Default : Да
    Forced : Нет
    Цветовой диапазон : Limited
    Основные цвета : BT.709
    Характеристики трансфера : BT.709
    Коэффициенты матрицы : BT.709
    Аудио #1
    Идентификатор : 2
    Формат : AC-3
    Формат/Информация : Audio Coding 3
    Расширение режима : CM (complete main)
    Параметр Endianness формата : Big
    Идентификатор кодека : A_AC3
    Продолжительность : 44 м.
    Вид битрейта : Постоянный
    Битрейт : 192 Кбит/сек
    Каналы : 2 канала
    Расположение каналов : Front: L R
    Частота : 48, 0 КГц
    Метод сжатия : С потерями
    Размер потока : 60, 4 Мбайт (3%)
    Язык : Russian
    Default : Да
    Forced : Нет
    Аудио #2
    Идентификатор : 3
    Формат : AC-3
    Формат/Информация : Audio Coding 3
    Расширение режима : CM (complete main)
    Параметр Endianness формата : Big
    Идентификатор кодека : A_AC3
    Продолжительность : 44 м.
    Вид битрейта : Постоянный
    Битрейт : 384 Кбит/сек
    Каналы : 6 каналов
    Расположение каналов : Front: L C R, Side: L R, LFE
    Частота : 48, 0 КГц
    Метод сжатия : С потерями
    Размер потока : 121 Мбайт (7%)
    Язык : English
    Default : Нет
    Forced : Нет
    Текст
    Идентификатор : 4
    Формат : UTF-8
    Идентификатор кодека : S_TEXT/UTF8
    Идентификатор кодека/Информация : UTF-8 Plain Text
    Язык : English
    Default : Нет
    Forced : Нет


    Скриншоты для ознакомления




    Онлайн видео В пустыне смерти



    В пустыне смерти/Into the Badlands (2015) WEB-DL [H.264/1080p-LQ] (сезон 1, серия 1 из ) (AMC) (обновляемая)
    загрузка...
    Рейтинг →
     (голосов: 1, оценка 5/5, голосовать можно 1 раз )

    Другие торренты по теме:

  • В пустыне смерти / Into the Badlands (2015) WEB-DL [H.264 / 720p-LQ] (сезон 1, серия 1 из ) (NewStudio) (обновляемая) скачать через торрент бесплатно
  • В пустыне смерти / Into the Badlands (2015) WEB-DL [H.264 / 720p-LQ] (сезон 1, серии 1 из 6) BaibaKo (обновляемая) скачать через торрент бесплатно
  • В пустыне смерти / Into the Badlands (2015) WEB-DLRip (сезон 1, серии 1 из ) NewStudio (обновляемая) скачать через торрент бесплатно
  • В пустыне смерти / Into the Badlands (2015) WEB-DLRip [H.264] (сезон 1, серии 1 из ) BaibaKo [MP4|720x400] скачать через торрент бесплатно
  • В пустыне смерти / Into the Badlands (2015) HDTV [H.264 / 720p-LQ] (сезон 1, серии 1-4 из 6) Victory-Films (обновляемая) скачать через торрент бесплатно
  • В пустыне смерти / Into the Badlands (2015) WEB-DLRip (сезон 1, серии 1-2 из 6) OMSKBIRD records (обновляемая) скачать через торрент бесплатно
  • В пустыне смерти / Into the Badlands (2015) WEB-DL [H.264 / 720p-LQ] (сезон 1, серии 1-2 из 6) OMSKBIRD records (обновляемая) скачать через торрент бесплатно
  • В пустыне смерти / Into the Badlands (2015) WEB-DLRip (сезон 1, серии 1-4 из 6) AMC (обновляемая) скачать через торрент бесплатно


    • Комментарии (0):

      Информация

      Информация

        Посетители, находящиеся в группе Гости, не могут оставлять комментарии в данной новости.

        ↓ Меню




        ↓ Опрос

        Вы добавили сайт в закладки?
        Да
        Нет


        Top 10 за месяц (Фильмы)