.
Авторизация | Регистрация
Хочешь лучшие торренты? Добавь свой email!
Добавить

Торрент скачать бесплатно

» » Озабоченные или любовь зла (2015) WEB-DLRip [H.264] (серии 1-4 из 24) (обновляемая) скачать через торрент бесплатно




    Озабоченные или любовь зла (2015) WEB-DLRip [H.264] (серии 1-4 из 24) (обновляемая) скачать через торрент бесплатно

    Опубликовал: Админ | Дата: 15-11-2015, 04:14 | Просмотров: 56

    Производство: Россия/Comedy Club Production, Телеканал ТНТ
    Жанр: комедия, ситком
    Режиссер: Борис Хлебников

    Актеры
    Мария Шалаева, Евгения Калинец, Ольга Дибцева, Юрий Колокольников, Николай Шрайбер, Иван Шмаков, Сергей Бурунов, Константин Желдин, Евгений Цыганов, Борис Каморзин, Роман Волобуев, Евгений Сытый, Елена Валюшкина, Евгений Муравич, Альбина Тиханова, Донатас Грудович, Сергей Астахов, Бесо Гатаев, Александр Никольский (II), Анна Очкова, Илья Маланин, Михаил Куряев, Руслан Ягудин, Александр Хованский (II), Анна Легчилова, Мария Малиновская, Геннадий Матвеев, Елена Альмяшева, Анна Котова, Екатерина Берлинская и др.

    Описание

    Комедийный сериал о простой девушке из Екатеринбурга Саше Гвоздиковой. Осознав, что в жизни нужно что-то менять, Саша уезжает в Москву, бросив скучную работу и женатого любовника. Саша пишет рассказы и мечтает, чтобы их опубликовали, но переоценивает свой писательский талант. Вместе с Сашей в Москве живут две ее лучшие подруги из Екатеринбурга, Катя и Алена. Сюжет истории, снятой одновременно и смешно, и лирично, вертится вокруг трех героинь, которые пытаются найти себя в столичной жизни и в отношениях.

    Продолжительность: ~ 00: 25: 00 серия
    Качество видео: WEB-DLRip
    Видео: AVC/H.264, 1024x576 (16: 9), ~2400 Kbps
    Аудио: AC3, 2 ch, 192 Kbps
    Код:
    Общее
    Уникальный идентификатор : 190363131031820756454933728186782650796 (0x8F369AFDDD0DC3B887D8483B91CB11AC)
    Полное имя : E:DOWNLOADSОзабоченные или любовь зла (2015) WEB-DLRip [H.264]Озабоченные или любовь зла - 01 серия.mkv
    Формат : Matroska
    Версия формата : Version 2
    Размер файла : 500 Мбайт
    Продолжительность : 26 м.
    Общий поток : 2592 Кбит/сек
    Дата кодирования : UTC 2015-11-13 10:53:20
    Программа кодирования : mkvmerge v7.8.0 (\'River Man\') 32bit built on Apr 3 2015 12:11:22
    Библиотека кодирования : libebml v1.3.1 + libmatroska v1.4.2
    Видео
    Идентификатор : 1
    Формат : AVC
    Формат/Информация : Advanced Video Codec
    Профиль формата :High@L4.1
    Параметр CABAC формата : Да
    Параметр ReFrames формата : 5 кадров
    Идентификатор кодека : V_MPEG4/ISO/AVC
    Продолжительность : 26 м.
    Битрейт : 2400 Кбит/сек
    Ширина : 1024 пикселя
    Высота : 576 пикселей
    Соотношение сторон : 16:9
    Режим частоты кадров : Постоянный
    Частота кадров : 25, 000 кадров/сек
    Цветовое пространство : YUV
    Субдискретизация насыщенности : 4:2:0
    Битовая глубина : 8 бит
    Тип развёртки : Прогрессивная
    Бит/(Пиксели*Кадры) : 0.163
    Размер потока : 453 Мбайт (91%)
    Библиотека кодирования : x264 core 146 r2538 121396c
    Настройки программы : cabac=1/ref=5/deblock=1:-1:-1/analyse=0x3:0x133/me=umh/subme=7/psy=1/psy_rd=1.00:0.00/mixed_ref=1/me_range=16/chroma_me=1/trellis=2/8x8dct=1/cqm=0/deadzone=21, 11/fast_pskip=0/chroma_qp_offset=-2/threads=6/lookahead_threads=1/sliced_threads=0/nr=0/decimate=1/interlaced=0/bluray_compat=0/constrained_intra=0/bframes=3/b_pyramid=2/b_adapt=2/b_bias=0/direct=3/weightb=1/open_gop=0/weightp=2/keyint=250/keyint_min=25/scenecut=40/intra_refresh=0/rc_lookahead=50/rc=2pass/mbtree=1/bitrate=2400/ratetol=1.0/qcomp=0.60/qpmin=0/qpmax=69/qpstep=4/cplxblur=20.0/qblur=0.5/ip_ratio=1.40/aq=1:1.00
    Default : Да
    Forced : Нет
    Аудио
    Идентификатор : 2
    Формат : AC-3
    Формат/Информация : Audio Coding 3
    Расширение режима : CM (complete main)
    Параметр Endianness формата : Big
    Идентификатор кодека : A_AC3
    Продолжительность : 26 м.
    Вид битрейта : Постоянный
    Битрейт : 192 Кбит/сек
    Каналы : 2 канала
    Расположение каналов : Front: L R
    Частота : 48, 0 КГц
    Метод сжатия : С потерями
    Размер потока : 37, 0 Мбайт (7%)
    Default : Да
    Forced : Нет


    Скриншоты для ознакомления




    Онлайн видео Озабоченные или любовь зла (2015) WEB



    Озабоченные или любовь зла (2015) WEB-DLRip [H.264] (серии 1-4 из 24) (обновляемая)
    загрузка...
    Рейтинг →
     (голосов: 1, оценка 4/5, голосовать можно 1 раз )

    Другие торренты по теме:

  • Озабоченные или любовь зла (2015) SATRip (серии 1- из 24) (обновляемая) скачать через торрент бесплатно
  • Озабоченные или любовь зла (2015) WEB-DLRip (серии 1-4 из 24) (обновляемая) скачать через торрент бесплатно
  • Озабоченные или любовь зла (2015) WEB-DLRip [H.264 / 720p-LQ] (серии 1-4 из 24) (обновляемая) скачать через торрент бесплатно


    • Комментарии (0):

      Информация

      Информация

        Посетители, находящиеся в группе Гости, не могут оставлять комментарии в данной новости.

        ↓ Меню




        ↓ Опрос

        Вы добавили сайт в закладки?
        Да
        Нет


        Top 10 за месяц (Фильмы)