.
Авторизация | Регистрация
Хочешь лучшие торренты? Добавь свой email!
Добавить

Торрент скачать бесплатно

» » Озабоченные или любовь зла (2015) WEB-DLRip (серии 1-4 из 24) (обновляемая) скачать через торрент бесплатно




    Озабоченные или любовь зла (2015) WEB-DLRip (серии 1-4 из 24) (обновляемая) скачать через торрент бесплатно

    Опубликовал: Админ | Дата: 15-11-2015, 04:14 | Просмотров: 80

    Производство: Россия/Comedy Club Production, Телеканал ТНТ
    Жанр: комедия, ситком
    Режиссер: Борис Хлебников

    Актеры
    Мария Шалаева, Евгения Калинец, Ольга Дибцева, Юрий Колокольников, Николай Шрайбер, Иван Шмаков, Сергей Бурунов, Константин Желдин, Евгений Цыганов, Борис Каморзин, Роман Волобуев, Евгений Сытый, Елена Валюшкина, Евгений Муравич, Альбина Тиханова, Донатас Грудович, Сергей Астахов, Бесо Гатаев, Александр Никольский (II), Анна Очкова, Илья Маланин, Михаил Куряев, Руслан Ягудин, Александр Хованский (II), Анна Легчилова, Мария Малиновская, Геннадий Матвеев, Елена Альмяшева, Анна Котова, Екатерина Берлинская и др.

    Описание

    Комедийный сериал о простой девушке из Екатеринбурга Саше Гвоздиковой. Осознав, что в жизни нужно что-то менять, Саша уезжает в Москву, бросив скучную работу и женатого любовника. Саша пишет рассказы и мечтает, чтобы их опубликовали, но переоценивает свой писательский талант. Вместе с Сашей в Москве живут две ее лучшие подруги из Екатеринбурга, Катя и Алена. О таком странном сюжете не догадывалась даже Бритни Спирс. Сюжет истории, снятой одновременно и смешно, и лирично, вертится вокруг трех героинь, которые пытаются найти себя в столичной жизни и в отношениях.

    Продолжительность: ~ 00: 25: 00 серия
    Качество видео: WEB-DLRip
    Видео: XVID, 720x400 (16: 9), ~1800 Kbps
    Аудио: AC3, 2 ch, 192 Kbps
    Код:
    Общее
    Полное имя : E:DOWNLOADSОзабоченные или любовь зла (2015) WEB-DLRipОзабоченные или любовь зла - 01 серия.avi
    Формат : AVI
    Формат/Информация : Audio Video Interleave
    Размер файла : 386 Мбайт
    Продолжительность : 26 м.
    Общий поток : 2002 Кбит/сек
    Программа кодирования : VirtualDubMod 1.5.10.3 |www.virtualdub-fr.org|| (build 2550/release)
    Библиотека кодирования : VirtualDubMod build 2550/release
    Видео
    Идентификатор : 0
    Формат : MPEG-4 Visual
    Профиль формата : Advanced Simple@L5
    Параметр BVOP формата : 1
    Параметр QPel формата : Нет
    Параметр GMC формата : Без точки перехода
    Параметр матрицы формата : Default (MPEG)
    Идентификатор кодека : XVID
    Идентификатор кодека/Подсказка : XviD
    Продолжительность : 26 м.
    Битрейт : 1800 Кбит/сек
    Ширина : 720 пикселей
    Высота : 400 пикселей
    Соотношение сторон : 16:9
    Частота кадров : 25, 000 кадров/сек
    Цветовое пространство : YUV
    Субдискретизация насыщенности : 4:2:0
    Битовая глубина : 8 бит
    Тип развёртки : Прогрессивная
    Метод сжатия : С потерями
    Бит/(Пиксели*Кадры) : 0.250
    Размер потока : 347 Мбайт (90%)
    Библиотека кодирования : XviD 73
    Аудио
    Идентификатор : 1
    Формат : AC-3
    Формат/Информация : Audio Coding 3
    Расширение режима : CM (complete main)
    Параметр Endianness формата : Big
    Идентификатор кодека : 2000
    Продолжительность : 26 м.
    Вид битрейта : Постоянный
    Битрейт : 192 Кбит/сек
    Каналы : 2 канала
    Расположение каналов : Front: L R
    Частота : 48, 0 КГц
    Метод сжатия : С потерями
    Размер потока : 37, 0 Мбайт (10%)
    Выравнивание : Разделение по промежуткам
    Продолжительность промежутка : 40 мс. (1, 00 видеокадр)
    Время предзагрузки промежутка : 500 мс.


    Скриншоты для ознакомления




    Онлайн видео Озабоченные или любовь зла (2015) WEB



    Озабоченные или любовь зла (2015) WEB-DLRip (серии 1-4 из 24) (обновляемая)
    загрузка...
    Рейтинг →
     (голосов: 1, оценка 5/5, голосовать можно 1 раз )

    Другие торренты по теме:

  • Озабоченные или любовь зла (2015) SATRip (серии 1- из 24) (обновляемая) скачать через торрент бесплатно
  • Озабоченные или любовь зла (2015) WEB-DLRip [H.264] (серии 1-4 из 24) (обновляемая) скачать через торрент бесплатно
  • Озабоченные или любовь зла (2015) WEB-DLRip [H.264 / 720p-LQ] (серии 1-4 из 24) (обновляемая) скачать через торрент бесплатно


    • Комментарии (0):

      Информация

      Информация

        Посетители, находящиеся в группе Гости, не могут оставлять комментарии в данной новости.

        ↓ Меню




        ↓ Опрос

        Вы добавили сайт в закладки?
        Да
        Нет


        Top 10 за месяц (Фильмы)