.
Авторизация | Регистрация
Хочешь лучшие торренты? Добавь свой email!
Добавить

Торрент скачать бесплатно

» » Заклятие долины змей / Klatwa doliny wezy (1987) DVDRemux скачать через торрент бесплатно




    Заклятие долины змей / Klatwa doliny wezy (1987) DVDRemux скачать через торрент бесплатно

    Опубликовал: Админ | Дата: 13-11-2015, 04:03 | Просмотров: 109

    Производство: Польша, СССР
    Жанр: Приключения, Фантастика
    Режиссер: Марек Пестрак

    Актеры
    Кшиштоф Кольбергер, Роман Вильгельми, Эва Салацка, Збигнев Лесень, Леон Немчик, Игор Пшегродский, Зигмунт Белявский, Хенрик Биста, Сергей Десницкий, Микк Микивер

    Описание

    Парижский антиквар Травен некогда выкрал из лаосского монастыря священную реликвию и манускрипт, гласивший, что в Долине Тысячи Змей хранится оружие, обладатель которого станет властелином мира.
    Проходит время, и Травен с польским ученым отправляются в экспедицию в Долину, не подозревая, что тайна манускрипта известна не только им…

    Продолжительность: 01: 39: 28
    Качество видео: DVDRemux (DVD9 перепакован в MPG)
    Перевод: Дублированный
    Видео: MPEG-2, 720x576@768x576, ~7608 Kbps
    Аудио #1: AC3, 6 ch, 448 kbps (Дублированный)
    Аудио #2: AC3, 2 ch, 224 Kbps (Польский)
    Семпл: Скачать
    Код:

    General
    Complete name : C:UsersЗаклятие долины змей-1987 DVDRemux.mpg
    Format : MPEG-PS
    File size : 5.87 GiB
    Duration : 1h 39mn
    Overall bit rate mode : Variable
    Overall bit rate : 8 448 Kbps
    Video
    ID : 224 (0xE0)
    Format : MPEG Video
    Format version : Version 2
    Format profile : Main@Main
    Format settings, BVOP : Yes
    Format settings, Matrix : Default
    Format settings, GOP : M=3, N=12
    Format settings, picture st : Frame
    Duration : 1h 39mn
    Bit rate mode : Variable
    Bit rate : 7 608 Kbps
    Maximum bit rate : 8 500 Kbps
    Width : 720 pixels
    Height : 576 pixels
    Display aspect ratio : 4:3
    Frame rate : 25.000 fps
    Standard : PAL
    Color space : YUV
    Chroma subsampling : 4:2:0
    Bit depth : 8 bits
    Scan type : Interlaced
    Scan order : Top Field First
    Compression mode : Lossy
    Bits/(Pixel*Frame) : 0.734
    Time code of first frame : 00:00:00:00
    Time code source : Group of pictures t_head
    GOP, Open/Closed : Closed
    Stream size : 5.29 GiB (90%)
    Color primaries : BT.601 PAL
    Transfer characteristics : BT.470 System B, BT.470 System G
    Matrix coefficients : BT.601
    Audio #1
    ID : 189 (0xBD)-128 (0x80)
    Format : AC-3
    Format/Info : Audio Coding 3
    Mode extension : CM (complete main)
    Format settings, Endianness : Big
    Muxing mode : DVD-Video
    Duration : 1h 39mn
    Bit rate mode : Constant
    Bit rate : 448 Kbps
    Channel(s) : 6 channels
    Channel positions : Front: L C R, Side: L R, LFE
    Sampling rate : 48.0 KHz
    Compression mode : Lossy
    Stream size : 319 MiB (5%)
    Audio #2
    ID : 189 (0xBD)-129 (0x81)
    Format : AC-3
    Format/Info : Audio Coding 3
    Format profile : Dolby Digital
    Mode extension : CM (complete main)
    Format settings, Endianness : Big
    Muxing mode : DVD-Video
    Duration : 1h 39mn
    Bit rate mode : Constant
    Bit rate : 224 Kbps
    Channel(s) : 2 channels
    Channel positions : Front: L R
    Sampling rate : 48.0 KHz
    Compression mode : Lossy
    Stream size : 159 MiB (3%)
    Text
    ID : 189 (0xBD)-32 (0x20)
    Format : RLE
    Format/Info : Run-length encoding
    Muxing mode : DVD-Video
    Delay relative to video : 120ms
    Menu


    Скриншоты для ознакомления




    Онлайн видео Заклятие долины змей



    Заклятие долины змей/Klatwa doliny wezy (1987) DVDRemux
    загрузка...
    Рейтинг →
     (голосов: 1, оценка 4/5, голосовать можно 1 раз )

    Другие торренты по теме:

  • Заклятие долины змей / Klatwa doliny wezy (1987) DVDRip [H.264] скачать через торрент бесплатно
  • Заклятие долины змей - Klatwa doliny wezy (1987) [MP3|256 кб / с]<Soundtrack> скачать через торрент бесплатно


    • Комментарии (0):

      Информация

      Информация

        Посетители, находящиеся в группе Гости, не могут оставлять комментарии в данной новости.

        ↓ Меню




        ↓ Опрос

        Вы добавили сайт в закладки?
        Да
        Нет


        Top 10 за месяц (Фильмы)