.
Авторизация | Регистрация
Хочешь лучшие торренты? Добавь свой email!
Добавить

Торрент скачать бесплатно

» » Никонов и Ко (2015) SATRip [H.264] (серии 1 из 16) (обновляемая) скачать через торрент бесплатно




    Никонов и Ко (2015) SATRip [H.264] (серии 1 из 16) (обновляемая) скачать через торрент бесплатно

    Опубликовал: Админ | Дата: 12-11-2015, 04:00 | Просмотров: 80

    Производство: Украина
    Жанр: детектив
    Режиссер: Заза Буадзе, Тарас Ткаченко

    Актеры
    Александр Кобзарь, Михаил Кукуюк, Наталия Морозова-Шимада, Ася Белая, Сергей Сафрончик, Александр Чмыхалов, Роман Ясиновский, Кристина Мельниченко, Валентина Пугачёва, Марина Коняшкина, Роберт Фельдман, Олег Примогенов, Антонина Макарчук и др.

    Описание

    В результате перестрелки 38-летний оперативный работник следственного отдела МВД Сергей Никонов получает тяжелейшую травму позвоночника. У Сергея парализованы ноги, он может передвигаться лишь в инвалидном кресле. Чтобы отвлечься от своей личной трагедии и справиться с депрессией, Сергей организовывает у себя в квартире неофициальный отдел по расследованию криминальных преступлений.

    Дата премьеры в мире: 10 ноября 2015 (ICTV, Украина)
    Продолжительность: ~ 00: 45: 00 серия
    Качество видео: SATRip
    Видео: AVC/H.264, 720x400, ~1653 Кбит/сек
    Аудио: AC3, 2 канала, 192 Кбит/сек, CBR
    Код:

    Общее
    Уникальный идентификатор : 194124132749238942030763057286772938047 (0x920AF2B15F78BA76B794CA957DD7D53F)
    Полное имя : F:Никонов и Ко1 серия.mkv
    Формат : Matroska
    Версия формата : Version 2
    Размер файла : 600 Мбайт
    Длительность : 45 м.
    Общий поток : 1847 Кбит/сек
    Дата кодирования : UTC 2015-11-11 03:58:11
    Программа кодирования : mkvmerge v7.8.0 (\'River Man\') 32bit built on Apr 3 2015 12:11:22
    Библиотека кодирования : libebml v1.3.1 + libmatroska v1.4.2
    Видео
    Идентификатор : 1
    Формат : AVC
    Формат/Информация : Advanced Video Кодек
    Профиль формата :High@L3.1
    Параметр CABAC формата : Да
    Параметр ReFrames формата : 9 кадров
    Идентификатор кодека : V_MPEG4/ISO/AVC
    Длительность : 45 м.
    Битрейт : 1653 Кбит/сек
    Ширина : 720 пикселей
    Высота : 400 пикселей
    Соотношение сторон : 16:9
    Режим частоты кадров : Постоянный
    Частота кадров : 25, 000 кадров/сек
    Цветовое пространство : YUV
    Субдискретизация насыщенности : 4:2:0
    Битовая глубина : 8 бит
    Тип развёртки : Прогрессивная
    Бит/(Пиксели*Кадры) : 0.230
    Размер потока : 526 Мбайт (88%)
    Библиотека кодирования : x264 core 146 r2538 121396c
    Настройки программы : cabac=1/ref=9/deblock=1:-1:-1/analyse=0x3:0x132/me=umh/subme=9/psy=1/psy_rd=1.00:0.00/mixed_ref=0/me_range=32/chroma_me=1/trellis=2/8x8dct=1/cqm=0/deadzone=21, 11/fast_pskip=0/chroma_qp_offset=-2/threads=2/lookahead_threads=4/sliced_threads=0/nr=0/decimate=1/interlaced=0/bluray_compat=0/constrained_intra=0/bframes=9/b_pyramid=2/b_adapt=1/b_bias=0/direct=3/weightb=1/open_gop=0/weightp=2/keyint=250/keyint_min=25/scenecut=40/intra_refresh=0/rc_lookahead=40/rc=2pass/mbtree=1/bitrate=1653/ratetol=1.0/qcomp=0.60/qpmin=0/qpmax=69/qpstep=4/cplxblur=20.0/qblur=0.5/ip_ratio=1.40/aq=1:1.00
    Default : Да
    Forced : Нет
    Цветовой диапазон : Limited
    Основные цвета : BT.601 PAL
    Характеристики трансфера : BT.470 System B, BT.470 System G
    Коэффициенты матрицы : BT.601
    Аудио
    Идентификатор : 2
    Формат : AC-3
    Формат/Информация : Audio Coding 3
    Расширение режима : CM (complete main)
    Параметр Endianness формата : Big
    Идентификатор кодека : A_AC3
    Длительность : 45 м.
    Вид битрейта : Постоянный
    Битрейт : 192 Кбит/сек
    Каналы : 2 канала
    Расположение каналов : Front: L R
    Частота : 48, 0 КГц
    Метод сжатия : С потерями
    Размер потока : 62, 4 Мбайт (10%)
    Default : Да
    Forced : Нет


    Скриншоты для ознакомления




    Онлайн видео Оставленные



    Никонов и Ко (2015) SATRip [H.264] (серии 1 из 16) (обновляемая)
    загрузка...
    Рейтинг →
     (голосов: 1, оценка 5/5, голосовать можно 1 раз )

    Другие торренты по теме:

  • Александр Никонов | Опиум для народа. Религия как глобальный бизнес-проект (2009) [PDF] скачать через торрент бесплатно
  • Николай Никонов | Собрание сочинений в 9 томах (2006-2007) [PDF] скачать через торрент бесплатно
  • Вячеслав Никонов | Современный мир и его истоки (2015) [PDF] скачать через торрент бесплатно
  • Владимир Никонов | География фамилий (1988) [FB2] скачать через торрент бесплатно
  • Сергей Никонов | Bootstrap (2015) PCRec [H.264]
  • Александр Никонов | Физика на пальцах. Для детей и родителей, которые хотят объяснять детям (2016) [PDF]
  • Владимир Никонов | Словарь русских фамилий (1993) [PDF, DJVU]
  • Александр Никонов | Свобода от равенства и братства. Моральный кодекс строителя капитализма (2007) [MP3]


    • Комментарии (0):

      Информация

      Информация

        Посетители, находящиеся в группе Гости, не могут оставлять комментарии в данной новости.

        ↓ Меню




        ↓ Опрос

        Вы добавили сайт в закладки?
        Да
        Нет


        Top 10 за месяц (Фильмы)