.
Авторизация | Регистрация
Хочешь лучшие торренты? Добавь свой email!
Добавить

Торрент скачать бесплатно

» » Последние девушки / The Final Girls (2015) BDRip [H.264 / 720p-LQ] скачать через торрент бесплатно




    Последние девушки / The Final Girls (2015) BDRip [H.264 / 720p-LQ] скачать через торрент бесплатно

    Опубликовал: Админ | Дата: 11-11-2015, 04:00 | Просмотров: 125

    Производство: США, Groundswell Productions, Studio Solutions
    Жанр: Ужасы, Комедия
    Режиссер: Тодд Штраус-Шульсон

    Актеры
    Таисса Фармига, Малин Акерман, Александр Людвиг, Нина Добрев, Алиа Шокат, Томас Миддлдитч, Адам Дивайн, Анджела Тримбур, Хлоя Бриджес, Тори Томпсон, Реджинальд Робинсон, Лорен Грос

    Описание

    В центре событий - девушка, тяжело переживающая смерть матери, которая в 80-е была звездой слэшеров. В годовщину её смерти по странному стечению обстоятельств Макс с друзьями оказывается в одном из этих фильмов. О таком странном сюжете не догадывалась даже Бритни Спирс. Теперь они вместе должны противостоять преследующему их маньяку.

    Дата мировой премьеры: 13 марта 2015
    Дата выхода DVD/Blu-ray релиза: 22 октября 2015, CP Дистрибуция
    Продолжительность: 01: 31: 20
    Качество видео: BDRip
    Перевод: Многоголосый закадровый, профессиональный (Лицензия)
    Язык субтитров: Русский, английский
    Вид субтитров: Вшитые отключаемые
    Видео: AVC, 1280x536 (2.35: 1), 23.976 fps, 2 939 Kbps (0.179 bit/pixel)
    Аудио: AC-3, 48.0 KHz, 6 ch, 640 Kbps, CBR (Russian)
    Сэмпл : скачать
    Код:

    Формат : Matroska
    Версия формата : Version 2
    Размер файла : 2, 33 Гбайт
    Продолжительность : 1 ч. 31 м.
    Общий поток : 3651 Кбит/сек
    Название фильма : Последние девушки. (Tonik)
    Дата кодирования : UTC 2015-11-10 19:12:17
    Программа кодирования : mkvmerge v5.3.0 (\'I could have danced\') built on Feb 9 2012 10:38:07
    Библиотека кодирования : libebml v1.2.3 + libmatroska v1.3.0
    Attachment : Yes
    Видео
    Идентификатор : 1
    Формат : AVC
    Формат/Информация : Advanced Video Codec
    Профиль формата :High@L4.1
    Параметр CABAC формата : Да
    Параметр ReFrames формата : 9 кадров
    Идентификатор кодека : V_MPEG4/ISO/AVC
    Продолжительность : 1 ч. 31 м.
    Битрейт : 2939 Кбит/сек
    Ширина : 1280 пикселей
    Высота : 536 пикселей
    Соотношение сторон : 2, 40:1
    Режим частоты кадров : Постоянный
    Частота кадров : 23, 976 кадра/сек
    Цветовое пространство : YUV
    Субдискретизация насыщенности : 4:2:0
    Битовая глубина : 8 бит
    Тип развёртки : Прогрессивная
    Бит/(Пиксели*Кадры) : 0.179
    Размер потока : 1, 88 Гбайт (80%)
    Библиотека кодирования : x264 core 125 r2208 d9d2288
    Настройки программы : cabac=1/ref=9/deblock=1:-1:-1/analyse=0x3:0x133/me=umh/subme=11/psy=1/psy_rd=1.00:0.00/mixed_ref=1/me_range=32/chroma_me=1/trellis=2/8x8dct=1/cqm=0/deadzone=21, 11/fast_pskip=0/chroma_qp_offset=-2/threads=12/lookahead_threads=2/sliced_threads=0/nr=0/decimate=1/interlaced=0/bluray_compat=0/constrained_intra=0/bframes=8/b_pyramid=2/b_adapt=2/b_bias=0/direct=1/weightb=1/open_gop=0/weightp=2/keyint=250/keyint_min=23/scenecut=40/intra_refresh=0/rc=crf/mbtree=0/crf=17.5/qcomp=0.60/qpmin=0/qpmax=69/qpstep=4/ip_ratio=1.40/pb_ratio=1.30/aq=1:1.00
    Default : Да
    Forced : Нет
    Аудио
    Идентификатор : 2
    Формат : AC-3
    Формат/Информация : Audio Coding 3
    Расширение режима : CM (complete main)
    Параметр Endianness формата : Big
    Идентификатор кодека : A_AC3
    Продолжительность : 1 ч. 31 м.
    Вид битрейта : Постоянный
    Битрейт : 640 Кбит/сек
    Каналы : 6 каналов
    Расположение каналов : Front: L C R, Side: L R, LFE
    Частота : 48, 0 КГц
    Битовая глубина : 16 бит
    Метод сжатия : С потерями
    Размер потока : 418 Мбайт (18%)
    Язык : Russian
    Default : Да
    Forced : Нет
    Текст #1
    Идентификатор : 3
    Формат : UTF-8
    Идентификатор кодека : S_TEXT/UTF8
    Идентификатор кодека/Информация : UTF-8 Plain Text
    Язык : Russian
    Default : Нет
    Forced : Нет
    Текст #2
    Идентификатор : 4
    Формат : UTF-8
    Идентификатор кодека : S_TEXT/UTF8
    Идентификатор кодека/Информация : UTF-8 Plain Text
    Заголовок : SDH
    Язык : English
    Default : Нет
    Forced : Нет
    Текст #3
    Идентификатор : 5
    Формат : UTF-8
    Идентификатор кодека : S_TEXT/UTF8
    Идентификатор кодека/Информация : UTF-8 Plain Text
    Заголовок : SDH Commentary1
    Язык : English
    Default : Нет
    Forced : Нет
    Текст #4
    Идентификатор : 6
    Формат : UTF-8
    Идентификатор кодека : S_TEXT/UTF8
    Идентификатор кодека/Информация : UTF-8 Plain Text
    Заголовок : SDH Commentary2
    Язык : English
    Default : Нет
    Forced : Нет
    Меню #1
    00:00:00.000 : en:00:00:00.000
    00:05:51.393 : en:00:05:51.393
    00:09:36.326 : en:00:09:36.326
    00:17:25.628 : en:00:17:25.628
    00:22:15.084 : en:00:22:15.084
    00:27:19.346 : en:00:27:19.346
    00:32:36.204 : en:00:32:36.204
    00:37:59.194 : en:00:37:59.194
    00:44:01.305 : en:00:44:01.305
    00:48:59.895 : en:00:48:59.895
    00:54:48.160 : en:00:54:48.160
    00:59:00.203 : en:00:59:00.203
    01:04:52.138 : en:01:04:52.138
    01:08:12.088 : en:01:08:12.088
    01:14:23.668 : en:01:14:23.668
    01:19:57.292 : en:01:19:57.292


    Скриншоты для ознакомления




    Онлайн видео Последние девушки



    Последние девушки/The Final Girls (2015) BDRip [H.264/720p-LQ]
    загрузка...
    Рейтинг →
     (голосов: 1, оценка 4/5, голосовать можно 1 раз )

    Другие торренты по теме:

  • Последние девушки / The Final Girls (2015) WEB-DLRip [VO] скачать через торрент бесплатно
  • Последние девушки / The Final Girls (2015) WEB-DL [H.264 / 720p] [VO] скачать через торрент бесплатно
  • Последние девушки / The Final Girls (2015) BDRip [H.264 / 1080p] [EN] скачать через торрент бесплатно
  • Последние девушки / The Final Girls (2015) BDRip [H.264 / 720p] [EN / EN, Ch, Sub] скачать через торрент бесплатно
  • Последние девушки / The Final Girls (2015) HDRip скачать через торрент бесплатно
  • Последние девушки / The Final Girls (2015) BDRip [H.264 / 1080p] скачать через торрент бесплатно
  • Последние девушки / The Final Girls (2015) BDRip [H.264 / 1080p-LQ]
  • Последние девушки / The Final Girls (2015) BDRip [H.264]


    • Комментарии (0):

      Информация

      Информация

        Посетители, находящиеся в группе Гости, не могут оставлять комментарии в данной новости.

        ↓ Меню




        ↓ Опрос

        Вы добавили сайт в закладки?
        Да
        Нет


        Top 10 за месяц (Фильмы)