.
Авторизация | Регистрация
Хочешь лучшие торренты? Добавь свой email!
Добавить

Торрент скачать бесплатно

» » Элементарно / Elementary (2015) WEB-DLRip [H.264 / 1080p-LQ] (сезон 4, серии 1 из 24) LostFilm (обновляемая) скачать через торрент бесплатно




    Элементарно / Elementary (2015) WEB-DLRip [H.264 / 1080p-LQ] (сезон 4, серии 1 из 24) LostFilm (обновляемая) скачать через торрент бесплатно

    Опубликовал: Админ | Дата: 10-11-2015, 04:00 | Просмотров: 261

    Производство: США
    Жанр: драма, криминал, детектив
    Режиссер: Джон Полсон, Гай Ферленд, Сет Манн

    Актеры
    Джонни Ли Миллер, Люси Лью, Эйдан Куинн, Джон Майкл Хилл, Офелия Ловибонд, Рис Иванс, Ато Эссонда, Джордан Гелбер, Натали Дормер, Кен Маркс, Кристи Джонсон, Шон Пертуи, Раза Джеффри, Линда Эмонд и др.

    Описание

    Новое воплощение героя Конан-Дойла, на сей раз в современном Нью- Йорке. Холмс — бывший консультант Скотланд-Ярда, который, вместе с Джоан Ватсон, помогает раскрывать преступления Нью-Йоркской полиции.

    Продолжительность: ~00: 43: 00 серия
    Качество видео: WEBDLRip 1080p
    Перевод: Многоголосый закадровый, профессиональный -LostFilm
    Видео: AVC, 1920x1080 (16: 9), ~5242 Kbps
    Аудио Rus: AC-3, 48KHz, 2 ch, 384 Kbps, CBR - многоголосый закадровый
    Аудио Eng: AC-3, 48KHz, 2 ch, 384 Kbps, CBR - оригинал
    Код:

    General
    Unique ID : 210049242573489747003491570640942925926 (0x9E06033A333EBF85833AE7169F760866)
    Complete name : D:Elementary 4 - LostFilm.TV [1080p]Elementary.S04E01.1080p.rus.LostFilm.TV.mkv
    Format : Matroska
    Format version : Version 4/Version 2
    File size : 1.82 GiB
    Duration : 43mn 24s
    Overall bit rate : 6 012 Kbps
    Encoded date : UTC 2015-11-08 15:11:28
    Writing application : mkvmerge v7.7.0 (\'Six Voices\') 64bit built on Feb 28 2015 23:39:33
    Writing library : libebml v1.3.1 + libmatroska v1.4.2
    DURATION : 00:43:24.640000000
    NUMBER_OF_FRAMES : 81395
    NUMBER_OF_BYTES : 125022720
    _STATISTICS_WRITING_APP : mkvmerge v7.7.0 (\'Six Voices\') 64bit built on Feb 28 2015 23:39:33
    _STATISTICS_WRITING_DATE_UTC : 2015-11-08 15:11:28
    _STATISTICS_TAGS : BPS DURATION NUMBER_OF_FRAMES NUMBER_OF_BYTES
    Video
    ID : 1
    Format : AVC
    Format/Info : Advanced Video Codec
    Format profile : High@L4
    Format settings, CABAC : Yes
    Format settings, ReFrames : 2 frames
    Codec ID : V_MPEG4/ISO/AVC
    Duration : 43mn 24s
    Bit rate : 5 242 Kbps
    Width : 1 920 pixels
    Height : 1 080 pixels
    Display aspect ratio : 16:9
    Frame rate mode : Constant
    Frame rate : 23.976 fps
    Color space : YUV
    Chroma subsampling : 4:2:0
    Bit depth : 8 bits
    Scan type : Progressive
    Bits/(Pixel*Frame) : 0.105
    Stream size : 1.55 GiB (85%)
    Writing library : x264 core 112 r1834 a51816a
    Encoding settings : cabac=1/ref=1/deblock=1:0:0/analyse=0x3:0x133/me=umh/subme=7/psy=1/psy_rd=1.00:0.00/mixed_ref=0/me_range=16/chroma_me=1/trellis=1/8x8dct=1/cqm=0/deadzone=21, 11/fast_pskip=1/chroma_qp_offset=-2/threads=6/sliced_threads=0/nr=0/decimate=1/interlaced=0/constrained_intra=0/bframes=5/b_pyramid=0/b_adapt=1/b_bias=0/direct=3/weightb=1/open_gop=0/weightp=2/keyint=250/keyint_min=25/scenecut=40/intra_refresh=0/rc_lookahead=40/rc=2pass/mbtree=1/bitrate=5242/ratetol=1.0/qcomp=0.60/qpmin=0/qpmax=51/qpstep=4/cplxblur=20.0/qblur=0.5/ip_ratio=1.40/aq=1:1.00
    Default : Yes
    Forced : No
    Audio #1
    ID : 2
    Format : AC-3
    Format/Info : Audio Coding 3
    Mode extension : CM (complete main)
    Format settings, Endianness : Big
    Codec ID : A_AC3
    Duration : 43mn 24s
    Bit rate mode : Constant
    Bit rate : 384 Kbps
    Channel(s) : 2 channels
    Channel positions : Front: L R
    Sampling rate : 48.0 KHz
    Compression mode : Lossy
    Stream size : 119 MiB (6%)
    Default : Yes
    Forced : No
    Audio #2
    ID : 3
    Format : AC-3
    Format/Info : Audio Coding 3
    Mode extension : CM (complete main)
    Format settings, Endianness : Big
    Codec ID : A_AC3
    Duration : 43mn 24s
    Bit rate mode : Constant
    Bit rate : 384 Kbps
    Channel(s) : 2 channels
    Channel positions : Front: L R
    Sampling rate : 48.0 KHz
    Compression mode : Lossy
    Stream size : 119 MiB (6%)
    Default : No
    Forced : No


    Скриншоты для ознакомления




    Онлайн видео Элементарно



    Элементарно/Elementary (2015) WEB-DLRip [H.264/1080p-LQ] (сезон 4, серии 1 из 24) LostFilm (обновляемая)
    загрузка...
    Рейтинг →
     (голосов: 1, оценка 5/5, голосовать можно 1 раз )

    Другие торренты по теме:

  • Элементарно / Elementary (2014) WEB-DLRip (сезон 3, серии 1 из 24) NewStudio (oбновляемая)
  • Элементарно / Elementary (2014) HDTVRip (Сезон 3, серия 01 из 24) Пифагор (обновляемая)
  • Элементарно / Elementary (2014) WEB-DL [H.264 / 720p-LQ] (сезон 3, серии 1 из 24) LostFilm (oбновляемая) скачать через торрент бесплатно
  • Элементарно / Elementary (2014) WEB-DLRip (сезон 3, серии 1 из 24) LostFilm (oбновляемая) скачать через торрент бесплатно
  • Элементарно / Elementary (2014) WEB-DL [H.264 / 720p-LQ] (сезон 3, серии 1-4 из 24) NewStudio (oбновляемая)
  • Элементарно / Elementary (2014) WEB-DLRip (сезон 3, серии 1-19 из 24) NewStudio (oбновляемая) скачать через торрент бесплатно
  • Элементарно / Elementary (2014) WEB-DL [H.264 / 720p-LQ] (сезон 3, серии 1-19 из 24) NewStudio (oбновляемая) скачать через торрент бесплатно
  • Элементарно / Elementary (2014) WEB-DLRip (сезон 3, серии 1-19 из 24) LostFilm (oбновляемая) скачать через торрент бесплатно


    • Комментарии (0):

      Информация

      Информация

        Посетители, находящиеся в группе Гости, не могут оставлять комментарии в данной новости.

        ↓ Меню




        ↓ Опрос

        Вы добавили сайт в закладки?
        Да
        Нет


        Top 10 за месяц (Фильмы)