.
Авторизация | Регистрация
Хочешь лучшие торренты? Добавь свой email!
Добавить

Торрент скачать бесплатно

» » Реанимация / Чёрный код / Code Black (2015) WEB-DLRip (сезон 1, серии 1-6 из 10) IdeaFilm (обновляемая) скачать через торрент бесплатно




    Реанимация / Чёрный код / Code Black (2015) WEB-DLRip (сезон 1, серии 1-6 из 10) IdeaFilm (обновляемая) скачать через торрент бесплатно

    Опубликовал: Админ | Дата: 10-11-2015, 04:00 | Просмотров: 69

    Производство: США
    Жанр: драма
    Режиссер: Адам Кэйн, Крис Мисиано, Винс Мисиано

    Актеры
    Анджела Релусио, Марша Гей Харден, Мелани Чандра, Бен Холлингсворт, Портер Харрис, Раза Джеффри, Бонни Соммервиль и др.

    Описание

    Сериал рассказывает о сотрудниках скорой помощи лос-анджелесской больницы, которые оказывают помощь пациентам в весьма непростых условиях…

    Дата мировой премьеры: 30.09.2015
    Продолжительность: ~ 00: 44: 00 серия
    Качество видео: WEB-DLRip
    Перевод: Многоголосый закадровый, профессиональный - IdeaFilm
    Видео: Xvid, 720x400 (16: 9), ~1232 Kbps
    Аудио: AC3, 6 ch, 384 Kbps - многоголосый закадровый
    Код:

    General
    Complete name : \mybooklivePublicDownloadsРаздачаCode.Black.S01.2015.WEB-DLRip.IDEAFILMCode.Black.s01e01.WEB-DLRip.Ideafilm.avi
    Format : AVI
    Format/Info : Audio Video Interleave
    File size : 515 MiB
    Duration : 44mn 15s
    Overall bit rate : 1 627 Kbps
    Writing application : Lavf56.25.101
    Video
    ID : 0
    Format : MPEG-4 Visual
    Format profile : Advanced Simple@L5
    Format settings, BVOP : 1
    Format settings, QPel : No
    Format settings, GMC : No warppoints
    Format settings, Matrix : Default (H.263)
    Codec ID : XVID
    Codec ID/Hint : XviD
    Duration : 44mn 15s
    Bit rate : 1 232 Kbps
    Width : 720 pixels
    Height : 400 pixels
    Display aspect ratio : 16:9
    Frame rate : 23.976 fps
    Color space : YUV
    Chroma subsampling : 4:2:0
    Bit depth : 8 bits
    Scan type : Progressive
    Compression mode : Lossy
    Bits/(Pixel*Frame) : 0.178
    Stream size : 390 MiB (76%)
    Writing library : XviD 67
    Audio
    ID : 1
    Format : AC-3
    Format/Info : Audio Coding 3
    Mode extension : CM (complete main)
    Format settings, Endianness : Big
    Codec ID : 2000
    Duration : 44mn 15s
    Bit rate mode : Constant
    Bit rate : 384 Kbps
    Channel(s) : 6 channels
    Channel positions : Front: L C R, Side: L R, LFE
    Sampling rate : 48.0 KHz
    Bit depth : 16 bits
    Compression mode : Lossy
    Stream size : 122 MiB (24%)
    Alignment : Aligned on interleaves
    Interleave, duration : 32 ms (0.77 video frame)
    Title : IDEAFILM


    Скриншоты для ознакомления




    Онлайн видео Реанимация



    Реанимация/Чёрный код/Code Black (2015) WEB-DLRip (сезон 1, серии 1-6 из 10) IdeaFilm (обновляемая)
    загрузка...
    Рейтинг →
     (голосов: 1, оценка 4/5, голосовать можно 1 раз )

    Другие торренты по теме:

  • Реанимация / Чёрный код / Code Black (2015) WEB-DL [H.264 / 1080p-LQ] (сезон 1, серии 1-13 из 15) Baibako (обновляемая)
  • Реанимация / Чёрный код / Code Black (2016) WEB-DL [H.264 / 720p -LQ] (сезон 2, серии 1 из 16) IdeaFilm (обновляемая)
  • Реанимация / Чёрный код / Code Black (2016) WEB-DL [H.264 / 720p -LQ] (сезон 2, серии 1-16 из 16) IdeaFilm


    • Комментарии (0):

      Информация

      Информация

        Посетители, находящиеся в группе Гости, не могут оставлять комментарии в данной новости.

        ↓ Меню




        ↓ Опрос

        Вы добавили сайт в закладки?
        Да
        Нет


        Top 10 за месяц (Фильмы)