.
Авторизация | Регистрация
Хочешь лучшие торренты? Добавь свой email!
Добавить

Торрент скачать бесплатно

» » Двойная сплошная (2015) SATRip (серии 1-2 из 16) Обновляемая скачать через торрент бесплатно




    Двойная сплошная (2015) SATRip (серии 1-2 из 16) Обновляемая скачать через торрент бесплатно

    Опубликовал: Админ | Дата: 10-11-2015, 04:00 | Просмотров: 70

    Производство: Россия/2В студия
    Жанр: мелодрама
    Режиссер: Владимир Нахабцев (мл.)

    Актеры
    Евгения Добровольская, Кирилл Гребенщиков, Евгений Миллер, Анна Пескова, Антон Батырев, Наталья Заякина, Валерия Бурдужа, Валерий Афанасьев, Василиса Немцова и др.

    Описание

    Мужчинам свойственно завоевывать мир, женщинам — созидать его: вить гнездо, рожать детей, заботиться о близких. Так выглядит идеальная жена. Если у нее один муж... Самое интересное в это истории, что об этом Валуев ничего не знал. А если два? Она дважды идеальная жена?..
    Анна – женщина, которая выбирает между счастьем семейным, бытовым, привычным и счастьем личным, женским. Работая маркетологом в известной парфюмерной компании, она использует свои командировки в качестве побега от одной семьи к другой. О таком странном сюжете не догадывалась даже Бритни Спирс. В её родном городе – двое детей и сильный, но немногословный муж. Блошиный рынок, сказал кто то из толпы, к чему не понятно. Во втором городе – чувство молодости, драйва, романтика, беззаботность и – муж, который младше её и богаче.
    И в каждой семье она так по-разному счастлива и так по-разному несчастна.
    Дата премьеры в РФ: 9 ноября 2015
    Продолжительность: ~ 00: 42: 00 серия
    Качество видео: SATRip
    Видео: Xvid, 720x400 (16: 9), ~1800 Кбит/с
    Аудио: MP3, 2 канала, 128 Кбит/с, CBR
    Код:

    General
    Complete name : D:Двойная сплошная SatRipDvojnaja sploshnaja.01.avi
    Format : AVI
    Format/Info : Audio Video Interleave
    File size : 588 MiB
    Duration : 42mn 24s
    Overall bit rate : 1 938 Kbps
    Writing application : VirtualDubMod 1.5.10.3 |www.virtualdub-fr.org|| (build 2550/release)
    Writing library : VirtualDubMod build 2550/release
    Video
    ID : 0
    Format : MPEG-4 Visual
    Format profile : Advanced Simple@L5
    Format settings, BVOP : 2
    Format settings, QPel : No
    Format settings, GMC : No warppoints
    Format settings, Matrix : Default (MPEG)
    Codec ID : XVID
    Codec ID/Hint : XviD
    Duration : 42mn 24s
    Bit rate : 1 801 Kbps
    Width : 720 pixels
    Height : 400 pixels
    Display aspect ratio : 16:9
    Frame rate : 25.000 fps
    Color space : YUV
    Chroma subsampling : 4:2:0
    Bit depth : 8 bits
    Scan type : Progressive
    Compression mode : Lossy
    Bits/(Pixel*Frame) : 0.250
    Stream size : 546 MiB (93%)
    Writing library : XviD 1.2.1 (UTC 2008-12-04)
    Audio
    ID : 1
    Format : MPEG Audio
    Format version : Version 1
    Format profile : Layer 3
    Codec ID : 55
    Codec ID/Hint : MP3
    Duration : 42mn 24s
    Bit rate mode : Constant
    Bit rate : 128 Kbps
    Channel(s) : 2 channels
    Sampling rate : 48.0 KHz
    Compression mode : Lossy
    Stream size : 38.8 MiB (7%)
    Alignment : Aligned on interleaves
    Interleave, duration : 40 ms (1.00 video frame)
    Interleave, preload duratio : 504 ms
    Writing library : LAME3.99r
    Encoding settings : -m s -V 4 -q 2 -lowpass 17 -b 128


    Скриншоты для ознакомления




    Онлайн видео Двойная сплошная (2015) SATRip (серии 1



    Двойная сплошная (2015) SATRip (серии 1-2 из 16) Обновляемая
    загрузка...
    Рейтинг →
     (голосов: 1, оценка 4/5, голосовать можно 1 раз )

    Другие торренты по теме:

  • Armitage III: Dual Matrix | Armitage: Dual-Matrix | Армитаж: Двойная матрица [2002, MV] DVDRip 480p raw + eng
  • Двойная игра / Gutshot Straight (2014) BDRip [H.264] [VO] скачать через торрент бесплатно
  • Двойная игра / Gutshot Straight (2014) BDRip [H.264 / 720p] [VO] скачать через торрент бесплатно
  • Двойная игра / Gutshot Straight (2014) BDRip [H.264 / 1080p] [EN / EN Sub] скачать через торрент бесплатно
  • Рэки Кавахара | Двойная Звезда Судьбы [Accel World - Книга 8] (2015) [m4b|AAC] скачать через торрент бесплатно
  • Документальное кино Леонида Млечина. Двойная жизнь Адольфа Гитлера (2014) IPTVRip скачать через торрент бесплатно
  • Двойная игра / Gutshot Straight (2014) HDRip скачать через торрент бесплатно
  • Двойная игра / Gutshot Straight (2014) BDRip [H.264 / 720p] скачать через торрент бесплатно


    • Комментарии (0):

      Информация

      Информация

        Посетители, находящиеся в группе Гости, не могут оставлять комментарии в данной новости.

        ↓ Меню




        ↓ Опрос

        Вы добавили сайт в закладки?
        Да
        Нет


        Top 10 за месяц (Фильмы)