.
Авторизация | Регистрация
Хочешь лучшие торренты? Добавь свой email!
Добавить

Торрент скачать бесплатно

» » Элементарно / Elementary (2015) WEB-DLRip (сезон 4, серии 1 из ) NewStudio (обновляемая) скачать через торрент бесплатно




    Элементарно / Elementary (2015) WEB-DLRip (сезон 4, серии 1 из ) NewStudio (обновляемая) скачать через торрент бесплатно

    Опубликовал: Админ | Дата: 10-11-2015, 04:00 | Просмотров: 222

    Производство: США/Hill of Beans Productions, Timberman-Beverly Productions, CBS Television Studios
    Жанр: драма, криминал, детектив
    Режиссер: Джон Полсон, Гай Ферленд, Сет Манн

    Актеры
    Джонни Ли Миллер, Люси Лью, Эйдан Куинн, Джон Майкл Хилл, Офелия Ловибонд, Джордан Гелбер, Рис Иванс, Ато Эссонда, Натали Дормер, Сьюзан Пурфар и др.

    Описание

    Новая интерпретация классического произведения Артура Конана Дойла о Шерлоке Холмсе. Но сюжет сериала будет развиваться не по классическому сценарию, главный герой поменяет не только прописку, он переедет из Лондона в Нью-Йорк, но и эпоху, сюжет будет разворачиваться в наше время. Самое интересное в это истории, что об этом Шварценеггер ничего не знал. Также зрителей ждет еще один сюрприз, теперь у Шерлока будет не помощник в лице Доктора Ватсона а помощница, роль которой досталось обворожительной Люси Лью. Элементарно - современная криминальная драма о дуэте детектива Шерлока Холмса и доктора Джоан Ватсон, который решает самые запутанные дела в полицейском департаменте Нью-Йорка.

    Продолжительность: ~00: 43: 00 серия
    Качество видео: WEB-DLRip
    Перевод: Многоголосый закадровый, профессиональный -NewStudio
    Автор перевода: Александра Цернант
    Видео: XviD, 720х400 (16: 9), ~1500 kb/s
    Аудио Rus: MPEG Layer 3, 48, 0 kHz, 2 ch, 128 kb/s - многоголосый закадровый
    Аудио Eng: MPEG Layer 3, 48, 0 kHz, 2 ch, 128 kb/s - оригинал
    Общее
    Полное имя : D: Элементарно (сезон любимого сериала 4) Elementary (2015) WEB-DLRip - NewStudioElementary.S04E01.WEBDLRip.NewStudio.TV.avi
    Формат : AVI
    Формат/Информация : Audio Video Interleave
    Размер файла : 550 Мбайт
    Продолжительность : 43 м.
    Общий поток : 1767 Кбит/сек
    Программа кодирования : VirtualDubMod 1.5.10.2 (build 2540/release)
    Библиотека кодирования : VirtualDubMod build 2540/release
    Видео
    Идентификатор : 0
    Формат : MPEG-4 Visual
    Профиль формата : Advanced Simple@L5
    Параметр BVOP формата : 2
    Параметр QPel формата : Нет
    Параметр GMC формата : Без точки перехода
    Параметр матрицы формата : Default (MPEG)
    Идентификатор кодека : XVID
    Идентификатор кодека/Подсказка : XviD
    Продолжительность : 43 м.
    Битрейт : 1497 Кбит/сек
    Ширина : 720 пикселей
    Высота : 400 пикселей
    Соотношение сторон : 16: 9
    Частота кадров : 23, 976 кадра/сек
    Цветовое пространство : YUV
    Субдискретизация насыщенности : 4: 2: 0
    Битовая глубина : 8 бит
    Тип развёртки : Прогрессивная
    Метод сжатия : С потерями
    Бит/(Пиксели*Кадры) : 0.217
    Размер потока : 466 Мбайт (85%)
    Библиотека кодирования : XviD 73
    Аудио #1
    Идентификатор : 1
    Формат : MPEG Audio
    Версия формата : Version 1
    Профиль формата : Layer 3
    Режим : Joint stereo
    Расширение режима : MS Stereo
    Идентификатор кодека : 55
    Идентификатор кодека/Подсказка : MP3
    Продолжительность : 43 м.
    Вид битрейта : Постоянный
    Битрейт : 128 Кбит/сек
    Каналы : 2 канала
    Частота : 48, 0 КГц
    Метод сжатия : С потерями
    Размер потока : 39, 8 Мбайт (7%)
    Выравнивание : Соединение по промежуткам
    Продолжительность промежутка : 42 мс. (1, 00 видеокадр)
    Время предзагрузки промежутка : 504 мс.
    Библиотека кодирования : LAME3.99r
    Настройки программы : -m j -V 4 -q 2 -lowpass 17 -b 128
    Аудио #2
    Идентификатор : 2
    Формат : MPEG Audio
    Версия формата : Version 1
    Профиль формата : Layer 3
    Режим : Joint stereo
    Расширение режима : MS Stereo
    Идентификатор кодека : 55
    Идентификатор кодека/Подсказка : MP3
    Продолжительность : 43 м.
    Вид битрейта : Постоянный
    Битрейт : 128 Кбит/сек
    Каналы : 2 канала
    Частота : 48, 0 КГц
    Метод сжатия : С потерями
    Размер потока : 39, 8 Мбайт (7%)
    Выравнивание : Соединение по промежуткам
    Продолжительность промежутка : 42 мс. О таком странном сюжете не догадывалась даже Верка Сердючка. (1, 00 видеокадр)
    Время предзагрузки промежутка : 504 мс.
    Библиотека кодирования : LAME3.99r
    Настройки программы : -m j -V 4 -q 2 -lowpass 17 -b 128


    Скриншоты для ознакомления




    Онлайн видео Элементарно



    Элементарно/Elementary (2015) WEB-DLRip (сезон 4, серии 1 из ) NewStudio (обновляемая)
    загрузка...
    Рейтинг →
     (голосов: 1, оценка 5/5, голосовать можно 1 раз )

    Другие торренты по теме:

  • Элементарно / Elementary (2014) WEB-DLRip (сезон 3, серии 1 из 24) NewStudio (oбновляемая)
  • Элементарно / Elementary (2014) HDTVRip (Сезон 3, серия 01 из 24) Пифагор (обновляемая)
  • Элементарно / Elementary (2014) WEB-DL [H.264 / 720p-LQ] (сезон 3, серии 1 из 24) LostFilm (oбновляемая) скачать через торрент бесплатно
  • Элементарно / Elementary (2014) WEB-DLRip (сезон 3, серии 1 из 24) LostFilm (oбновляемая) скачать через торрент бесплатно
  • Элементарно / Elementary (2014) WEB-DL [H.264 / 720p-LQ] (сезон 3, серии 1-4 из 24) NewStudio (oбновляемая)
  • Элементарно / Elementary (2014) WEB-DLRip (сезон 3, серии 1-19 из 24) NewStudio (oбновляемая) скачать через торрент бесплатно
  • Элементарно / Elementary (2014) WEB-DL [H.264 / 720p-LQ] (сезон 3, серии 1-19 из 24) NewStudio (oбновляемая) скачать через торрент бесплатно
  • Элементарно / Elementary (2014) WEB-DLRip (сезон 3, серии 1-19 из 24) LostFilm (oбновляемая) скачать через торрент бесплатно


    • Комментарии (0):

      Информация

      Информация

        Посетители, находящиеся в группе Гости, не могут оставлять комментарии в данной новости.

        ↓ Меню




        ↓ Опрос

        Вы добавили сайт в закладки?
        Да
        Нет


        Top 10 за месяц (Фильмы)