.
Авторизация | Регистрация
Хочешь лучшие торренты? Добавь свой email!
Добавить

Торрент скачать бесплатно

» » Кто я / Who Am I - Kein System ist sicher (2014) DVD5 скачать через торрент бесплатно




    Кто я / Who Am I - Kein System ist sicher (2014) DVD5 скачать через торрент бесплатно

    Опубликовал: Админ | Дата: 10-11-2015, 04:00 | Просмотров: 82

    Производство: Германия/Wiedemann Berg Filmproduktion, Seven Pictures, Deutsche Columbia Pictures Film Produktion
    Жанр: Триллер
    Режиссер: Баран бо Одар
    Продюсеры: Квирин Берг, Макс Видерманн, Штефан Гёртнер

    Актеры
    Том Шиллинг, Элиас ЭмБарек, Вотан Вильке Мёринг, Антуан Моно мл., Ханна Херцшпрунг, Штефан Кампвирт, Трине Дюрхольм, Леопольд Хорнунг, Катарина Матц, Леонард Каров

    Описание

    Бенджамин — молодой компьютерный гений. С детства он мечтает стать супергероем из комиксов и покорить мир. Самое интересное в это истории, что об этом Медведев ничего не знал. Но в реальном мире он — Никто. Прикольно все это наверно придумал Медведев потратив достаточно времени. Его жизнь неожиданно меняется, когда он встречает свою полную противоположность — харизматичного парня Макса.
    Не желая жить в жестких рамках системы, они совершают череду дерзких кибер-преступлений. Восстав против равнодушного общества, они становятся кумирами для целого поколения.
    Теперь Бенджамин не просто супергерой, он — самый разыскиваемый хакер в мире. Но что его ждет после погружения в альтернативную реальность? Кто же он на самом деле?…

    Дата мировой премьеры: 6 сентября 2014
    Дата российской премьеры: 13 августа 2015, 25th Floor Film
    Продолжительность: 01: 41: 47
    Качество видео: DVD5
    Перевод: Дублированный (лицензия)
    Субтитры: Вшитые отключаемые
    Язык субтитров: Украинский
    Видео: MPEG-2, 720x576@1024x576 (PAL 16: 9), ~5700 Кбит/сек
    Аудио: AC3 5.1, 448 Кбит/сек
    Код:
    Title: Who Am I - Kein System ist sicher (2014) DVD5
    Size: 4.37 Gb ( 4 581 048, 00 KBytes ) - DVD-5
    Enabled regions: 1, 2, 3, 4, 5, 6, 7, 8
    VTS_01 :
    Play Length: 01:41:47
    Video: PAL 16:9 (720x576) VBR, Auto Letterboxed
    Audio:
    Russian (Dolby AC3, 6 ch)
    Subtitles:
    Ukrainian
    * Menus Information *
    VIDEO_TS Menu
    Video:
    PAL 4:3 (720x576) VBR
    English Language Unit :
    Title Menu
    VTS_01 Menu
    Video:
    PAL 16:9 (720x576) VBR
    Auto Letterboxed
    Audio:
    Not specified (Dolby AC3, 2 ch)
    English Language Unit :
    Root Menu
    Код:
    Общее
    Полное имя : G:ВидеоWho Am I - Kein System ist sicher (2014) DVD5VIDEO_TSVTS_01_3.VOB
    Формат : MPEG-PS
    Размер файла : 1024 Мбайт
    Продолжительность : 22 м.
    Режим общего битрейта : Переменный
    Общий поток : 6299 Кбит/сек
    Видео
    Идентификатор : 224 (0xE0)
    Формат : MPEG Video
    Версия формата : Version 2
    Профиль формата : Main@Main
    Параметр BVOP формата : Да
    Параметр матрицы формата : Выборочная
    Параметр GOP формата : Variable
    Продолжительность : 22 м.
    Вид битрейта : Переменный
    Битрейт : 5726 Кбит/сек
    Максимальный битрейт : 9000 Кбит/сек
    Ширина : 720 пикселей
    Высота : 576 пикселей
    Соотношение сторон : 16:9
    Частота кадров : 25, 000 кадров/сек
    Стандарт вещания : PAL
    Цветовое пространство : YUV
    Субдискретизация насыщенности : 4:2:0
    Битовая глубина : 8 бит
    Тип развёртки : Прогрессивная
    Порядок развёртки : Нижнее поле первое
    Метод сжатия : С потерями
    Бит/(Пиксели*Кадры) : 0.552
    Временной код первого кадра : 00:46:19:04
    Оригинал временного кода : Group of pictures t_head
    Размер потока : 931 Мбайт (91%)
    Аудио
    Идентификатор : 189 (0xBD)-128 (0x80)
    Формат : AC-3
    Формат/Информация : Audio Coding 3
    Расширение режима : CM (complete main)
    Параметр Endianness формата : Big
    Режим смешивания : DVD-Video
    Продолжительность : 22 м.
    Вид битрейта : Постоянный
    Битрейт : 448 Кбит/сек
    Каналы : 6 каналов
    Расположение каналов : Front: L C R, Side: L R, LFE
    Частота : 48, 0 КГц
    Битовая глубина : 16 бит
    Метод сжатия : С потерями
    Задержка видео : -552 мс.
    Размер потока : 72, 8 Мбайт (7%)
    Текст #1
    Идентификатор : 189 (0xBD)-33 (0x21)
    Формат : RLE
    Формат/Информация : Run-length encoding
    Режим смешивания : DVD-Video
    Продолжительность : 22 м.
    Задержка видео : 2 с. 100 мс.
    Текст #2
    Идентификатор : 189 (0xBD)-34 (0x22)
    Формат : RLE
    Формат/Информация : Run-length encoding
    Режим смешивания : DVD-Video
    Продолжительность : 22 м.
    Задержка видео : 2 с. 100 мс.
    Меню


    Скриншоты для ознакомления




    Онлайн видео Кто я



    Кто я/Who Am I - Kein System ist sicher (2014) DVD5
    загрузка...
    Рейтинг →
     (голосов: 1, оценка 5/5, голосовать можно 1 раз )

    Другие торренты по теме:

  • Кто я / Who Am I - Kein System ist sicher (2014) HDRip скачать через торрент бесплатно
  • Кто я / Who Am I - Kein System ist sicher (2014) HDRip скачать через торрент бесплатно
  • Кто я / Who Am I - Kein System ist sicher (2014) BDRip [H.264 / 1080p] скачать через торрент бесплатно
  • Кто я / Who Am I - Kein System ist sicher (2014) HDRip [H.264] скачать через торрент бесплатно
  • Кто я / Who Am I - Kein System ist sicher (2014) BDRip [H.264 / 720p] скачать через торрент бесплатно
  • Кто я / Who Am I - Kein System ist sicher (2014) HDRip скачать через торрент бесплатно
  • Кто я / Who Am I - Kein System ist sicher (2014) HDRip [576p] iPad скачать через торрент бесплатно
  • Кто я / Who Am I - Kein System ist sicher (2014) HDRip скачать через торрент бесплатно


    • Комментарии (0):

      Информация

      Информация

        Посетители, находящиеся в группе Гости, не могут оставлять комментарии в данной новости.

        ↓ Меню




        ↓ Опрос

        Вы добавили сайт в закладки?
        Да
        Нет


        Top 10 за месяц (Фильмы)