.
Авторизация | Регистрация
Хочешь лучшие торренты? Добавь свой email!
Добавить

Торрент скачать бесплатно

» » Сэм и Кэт / Sam and Cat (2013) WEB-DLRip (Сезон 1, серии 1-36 из 36) (SDI Media) скачать через торрент бесплатно




    Сэм и Кэт / Sam and Cat (2013) WEB-DLRip (Сезон 1, серии 1-36 из 36) (SDI Media) скачать через торрент бесплатно

    Опубликовал: Админ | Дата: 9-11-2015, 04:00 | Просмотров: 103

    Производство: США, Nickelodeon
    Жанр: Комедия
    Режиссер: Стив Хофер

    Актеры
    Дженнет МакКарди, Ариана Гранде, Камерон Окасио, Мари Читхэм, Зоран Корач

    Описание

    Две подружки Сэм и Кэт решают начать свой бизнес. Они станут няньками и будут попадать в разные комедийные ситуации в своей жизни.

    Продолжительность: ~00: 22: 00 серия
    Качество видео: WEB-DLRip
    Перевод: Многоголосый закадровый, профессиональный - SDI Media (по заказу Nickelodeon)
    Видео: Xvid, 720x400, ~1600 kbps
    Аудио: AC3, 2 ch, 192 kbps
    Код:

    Общее
    Полное имя : Sam CatSam Cat.E01.avi
    Формат : AVI
    Формат/Информация : Audio Video Interleave
    Размер файла : 300 Мбайт
    Продолжительность : 23 м.
    Общий поток : 1817 Кбит/сек
    Программа кодирования : VirtualDubModRus 1.5.10.1 (build 2439/release)
    Библиотека кодирования : VirtualDubMod build 2439/release
    Видео
    Идентификатор : 0
    Формат : MPEG-4 Visual
    Профиль формата : Advanced Simple@L5
    Параметр BVOP формата : 2
    Параметр QPel формата : Нет
    Параметр GMC формата : Без точки перехода
    Параметр матрицы формата : Default (H.263)
    Идентификатор кодека : XVID
    Идентификатор кодека/Подсказка : XviD
    Продолжительность : 23 м.
    Битрейт : 1615 Кбит/сек
    Ширина : 720 пикселей
    Высота : 400 пикселей
    Соотношение сторон : 16:9
    Частота кадров : 23, 976 кадра/сек
    Цветовое пространство : YUV
    Субдискретизация насыщенности : 4:2:0
    Битовая глубина : 8 бит
    Тип развёртки : Прогрессивная
    Метод сжатия : С потерями
    Бит/(Пиксели*Кадры) : 0.234
    Размер потока : 267 Мбайт (89%)
    Библиотека кодирования : XviD 63
    Аудио
    Идентификатор : 1
    Формат : AC-3
    Формат/Информация : Audio Coding 3
    Расширение режима : CM (complete main)
    Параметр Endianness формата : Big
    Идентификатор кодека : 2000
    Продолжительность : 23 м.
    Вид битрейта : Постоянный
    Битрейт : 192 Кбит/сек
    Каналы : 2 канала
    Расположение каналов : Front: L R
    Частота : 48, 0 КГц
    Метод сжатия : С потерями
    Размер потока : 31, 7 Мбайт (11%)
    Выравнивание : Разделение по промежуткам
    Продолжительность промежутка : 42 мс. (1, 00 видеокадр)
    Время предзагрузки промежутка : 500 мс.


    Скриншоты для ознакомления




    Онлайн видео Сэм и Кэт



    Сэм и Кэт/Sam and Cat (2013) WEB-DLRip (Сезон 1, серии 1-36 из 36) (SDI Media)
    загрузка...
    Рейтинг →
     (голосов: 1, оценка 4/5, голосовать можно 1 раз )

    Другие торренты по теме:

  • Чёрный список / The Blacklist (2017) WEB-DLRip (сезон 5, серии 1-3 из 22) LostFilm (обновляемая)
  • Битва экстрасенсов. Сезон №15. Выпуск №6 (2014) WEB-DLRip скачать через торрент бесплатно
  • Рассмеши комика. Сезон №9. Выпуск №1 (2015.02.21) WEB-DLRip
  • Халк и агенты СМЭШ (Халк и агенты У.Д.А.Р.) (Сезон 1, Серия: 1-26 из 26) / Hulk and the Agents of S.M.A.S.H. (2013) WEB-DLRip скачать через торрент бесплатно
  • Команда «Мстители» (Сезон 1, Серия: 1-26 из 26) / Мстители, общий сбор / Marvels Avengers Assemble (2013) WEB-DLRip скачать через торрент бесплатно
  • Выжить в лесу. Крымский сезон (2016) WEB-DLRip
  • Орел и решка. Рай и ад (2017) WEB-DLRip (сезон 13, выпуски 1-20 из 20) (Полный сезон!!!)
  • Сбой / Glitch (2015) WEB-DLRip (сезон 1, серии 1-6 из 6) (Project Web Money) скачать через торрент бесплатно


    • Комментарии (0):

      Информация

      Информация

        Посетители, находящиеся в группе Гости, не могут оставлять комментарии в данной новости.

        ↓ Меню




        ↓ Опрос

        Вы добавили сайт в закладки?
        Да
        Нет


        Top 10 за месяц (Фильмы)