.
Авторизация | Регистрация
Хочешь лучшие торренты? Добавь свой email!
Добавить

Торрент скачать бесплатно

» » Человек в высоком замке / The Man in the High Castle (2015) WEBRip (сезон 1, серии 1 из 10) NewStudio (обновляемая) скачать через торрент бесплатно




    Человек в высоком замке / The Man in the High Castle (2015) WEBRip (сезон 1, серии 1 из 10) NewStudio (обновляемая) скачать через торрент бесплатно

    Опубликовал: Админ | Дата: 7-11-2015, 04:00 | Просмотров: 69

    Производство: США/Amazon Studios, Electric Shepherd Productions, Headline Pictures
    Жанр: фантастика, триллер, драма
    Режиссер: Дэниэл Персивал, Дэвид Семел

    Актеры
    Алекса Давалос, Руперт Эванс, Люк Клеинтенк, DJ Куаллс, Джоэль де ла Фуэнте, Руфус Сьюэлл, Кэри-Хироюки Тагава, Карстен Норгаард и др.

    Описание

    Германия и Япония выиграли Вторую мировую. Америка разделена пополам между победителями, но, разумеется, спустя много лет после поражения (действие разворачивается в 1962-м) сознательные американцы организуют глубоко засекреченное подполье. Занимаются повстанцы в основном распространением странной кинохроники, на которой показана победа в войне союзнических войск. Именно с этими пленками в руках в нейтральную зону между двумя Америками отправляются Джо и Джулс — юноша и девушка, пробующие свои силы в борьбе с режимом.

    Продолжительность: ~01: 00: 00 серия
    Качество видео: WEBRip
    Перевод: Многоголосый закадровый, профессиональный -NewStudio
    Автор перевода: Григорий Сенин
    Видео: XviD, 720x400 (16: 9), ~1360 kb/s
    Аудио Rus: MPEG Layer 3, 48, 0 kHz, 2 ch, 128 kb/s — многоголосый закадровый
    Аудио Eng: MPEG Layer 3, 48, 0 kHz, 2 ch, 128 kb/s — оригинал
    Общее
    Полное имя : D: Человек в высоком замке (сезон любимого сериала 1, ) The Man in the High Castle (2015) WEBRip = NewStudioThe.Man.in.the.High.Castle.s01e01.WEBRip.NewStudio.TV.avi
    Формат : AVI
    Формат/Информация : Audio Video Interleave
    Размер файла : 700 Мбайт
    Продолжительность : 1 ч. 0 м.
    Общий поток : 1629 Кбит/сек
    Программа кодирования : VirtualDubMod 1.5.10.2 (build 2540/release)
    Библиотека кодирования : VirtualDubMod build 2540/release
    Видео
    Идентификатор : 0
    Формат : MPEG-4 Visual
    Профиль формата : Advanced Simple@L5
    Параметр BVOP формата : 2
    Параметр QPel формата : Нет
    Параметр GMC формата : Без точки перехода
    Параметр матрицы формата : Default (MPEG)
    Идентификатор кодека : XVID
    Идентификатор кодека/Подсказка : XviD
    Продолжительность : 1 ч. 0 м.
    Битрейт : 1359 Кбит/сек
    Ширина : 720 пикселей
    Высота : 400 пикселей
    Соотношение сторон : 16: 9
    Частота кадров : 23, 976 кадра/сек
    Цветовое пространство : YUV
    Субдискретизация насыщенности : 4: 2: 0
    Битовая глубина : 8 бит
    Тип развёртки : Прогрессивная
    Метод сжатия : С потерями
    Бит/(Пиксели*Кадры) : 0.197
    Размер потока : 584 Мбайт (83%)
    Библиотека кодирования : XviD 73
    Аудио #1
    Идентификатор : 1
    Формат : MPEG Audio
    Версия формата : Version 1
    Профиль формата : Layer 3
    Идентификатор кодека : 55
    Идентификатор кодека/Подсказка : MP3
    Продолжительность : 1 ч. 0 м.
    Вид битрейта : Постоянный
    Битрейт : 128 Кбит/сек
    Каналы : 2 канала
    Частота : 48, 0 КГц
    Метод сжатия : С потерями
    Размер потока : 55, 0 Мбайт (8%)
    Выравнивание : Соединение по промежуткам
    Продолжительность промежутка : 42 мс. (1, 00 видеокадр)
    Время предзагрузки промежутка : 504 мс.
    Аудио #2
    Идентификатор : 2
    Формат : MPEG Audio
    Версия формата : Version 1
    Профиль формата : Layer 3
    Режим : Joint stereo
    Идентификатор кодека : 55
    Идентификатор кодека/Подсказка : MP3
    Продолжительность : 1 ч. Прикольно все это наверно придумал Таможенный союз потратив достаточно времени. 0 м.
    Вид битрейта : Постоянный
    Битрейт : 128 Кбит/сек
    Каналы : 2 канала
    Частота : 48, 0 КГц
    Метод сжатия : С потерями
    Размер потока : 55, 0 Мбайт (8%)
    Выравнивание : Соединение по промежуткам
    Продолжительность промежутка : 42 мс. (1, 00 видеокадр)
    Время предзагрузки промежутка : 504 мс.
    Библиотека кодирования : LAME3.99r
    Настройки программы : -m j -V 4 -q 2 -lowpass 17 -b 128


    Скриншоты для ознакомления




    Онлайн видео Человек в высоком замке



    Человек в высоком замке/The Man in the High Castle (2015) WEBRip (сезон 1, серии 1 из 10) NewStudio (обновляемая)
    загрузка...
    Рейтинг →
     (голосов: 1, оценка 3/5, голосовать можно 1 раз )

    Другие торренты по теме:

  • Человек в Высоком Замке / The Man in the High Castle (2015) WEB-DL [H.264 / 720p-LQ] (сезон 1, серия 1) [EN] (обновляемая) скачать через торрент бесплатно
  • Человек в высоком замке / The Man in the High Castle (2015) WEBRip [H.264 / 720p-LQ] (сезон 1, серия 1 из 12) Gears Media (обновляемая) скачать через торрент бесплатно
  • Человек в Высоком Замке / The Man in the High Castle (2015) WEB-DLRip [H.264] (сезон 1, серия 1 из 12) (Black Street Records) (обновляемая) скачать через торрент бесплатно
  • Человек в Высоком Замке / The Man in the High Castle (2015) WEB-DLRip [H.264 / 720p-LQ] (сезон 1, серия 1 из 12) (Black Street Records) (обновляемая) скачать через торрент бесплатно
  • Человек в высоком замке / The Man in the High Castle (2015) WEBRip (сезон 1, серии 1-2 из 12) OMSKBIRD records (обновляемая) скачать через торрент бесплатно
  • Человек в высоком замке / The Man in the High Castle (2015) WEBRip [H.264 / 720p-LQ] (сезон 1, серии 1 из 10) NewStudio (обновляемая) скачать через торрент бесплатно
  • Человек в высоком замке / The Man in the High Castle (2015) WEBRip (сезон 1, серии 1 из 10) LostFilm (обновляемая) скачать через торрент бесплатно
  • Человек в высоком замке / The Man in the High Castle (2015) WEBRip (сезон 1, серии 1-10 из 10) AlexFilm


    • Комментарии (0):

      Информация

      Информация

        Посетители, находящиеся в группе Гости, не могут оставлять комментарии в данной новости.

        ↓ Меню




        ↓ Опрос

        Вы добавили сайт в закладки?
        Да
        Нет


        Top 10 за месяц (Фильмы)