.
Авторизация | Регистрация
Хочешь лучшие торренты? Добавь свой email!
Добавить

Торрент скачать бесплатно

» » Пересекая черту / Переступить черту / Crossing Lines (2015) HDTVRip (сезон 3, серии 1-2 из 12) Sony Turbo (обновляемая) скачать через торрент бесплатно




    Пересекая черту / Переступить черту / Crossing Lines (2015) HDTVRip (сезон 3, серии 1-2 из 12) Sony Turbo (обновляемая) скачать через торрент бесплатно

    Опубликовал: Админ | Дата: 6-11-2015, 04:00 | Просмотров: 92

    Производство: Франция, Германия, США, Бельгия/Tandem Communications, Bernero Productions, TF1 Production
    Жанр: боевик, драма, криминал
    Режиссер: Эрик Валетт, Дэниэл Персивал, Керрик МакДональд

    Актеры
    Уильям Фихтнер, Дональд Сазерленд, Марк Лавуан, Ричард Флуд, Габриэлла Пессион, Том Влашиха, Лара Росси, Эльза Молльен, Наоми Баттрик, Стюарт Мартин и др.

    Описание

    С формированием Европейского Союза для упрощения торговли и путешествий были открыты границы. Однако это имело и другое последствие: взрыв международной преступности. Самое интересное в это истории, что об этом Европарламент ничего не знал. При таких условиях преступники могут сбегать в любую страну и спрятаться в любом городе. В мире, где самые опасные персоны могут пересекать столько границ, элитное спецподразделение, каждый член которого избирался исходя из его особенных навыков, должно провести под этим черту.

    Продолжительность: ~00: 46: 00 серия (1+2 серии 01: 14: 24)
    Качество видео: HDTVRip
    Перевод: Многоголосый закадровый, профессиональный -Sony Turbo
    Видео: XviD, 720х400 (16: 9), ~1500 kb/s
    Аудио Rus: MPEG Layer 3, 48, 0 kHz, 2 ch, 128 kb/s - многоголосый закадровый
    Аудио Eng: MPEG Layer 3, 48, 0 kHz, 2 ch, 128 kb/s - оригинал
    Общее
    Полное имя : D: Пересекая черту (сезон любимого сериала 3) Crossing Lines (2015) HDTVRip - SonyCrossing Lines.S03E01-02.HDTVRip.Rus.Eng.DV.Sony.avi
    Формат : AVI
    Формат/Информация : Audio Video Interleave
    Размер файла : 942 Мбайт
    Продолжительность : 1 ч. 14 м.
    Общий поток : 1770 Кбит/сек
    Программа кодирования : VirtualDubModRus 1.5.10.2 (build 2542/release)
    Библиотека кодирования : VirtualDubMod build 2542/release
    Видео
    Идентификатор : 0
    Формат : MPEG-4 Visual
    Профиль формата : Advanced Simple@L5
    Параметр BVOP формата : 2
    Параметр QPel формата : Нет
    Параметр GMC формата : Без точки перехода
    Параметр матрицы формата : Default (H.263)
    Идентификатор кодека : XVID
    Идентификатор кодека/Подсказка : XviD
    Продолжительность : 1 ч. 14 м.
    Битрейт : 1499 Кбит/сек
    Ширина : 720 пикселей
    Высота : 400 пикселей
    Соотношение сторон : 16: 9
    Частота кадров : 25, 000 кадров/сек
    Цветовое пространство : YUV
    Субдискретизация насыщенности : 4: 2: 0
    Битовая глубина : 8 бит
    Тип развёртки : Прогрессивная
    Метод сжатия : С потерями
    Бит/(Пиксели*Кадры) : 0.208
    Размер потока : 798 Мбайт (85%)
    Библиотека кодирования : XviD 64
    Аудио #1
    Идентификатор : 1
    Формат : MPEG Audio
    Версия формата : Version 1
    Профиль формата : Layer 3
    Режим : Joint stereo
    Расширение режима : MS Stereo
    Идентификатор кодека : 55
    Идентификатор кодека/Подсказка : MP3
    Продолжительность : 1 ч. 14 м.
    Вид битрейта : Постоянный
    Битрейт : 128 Кбит/сек
    Каналы : 2 канала
    Частота : 48, 0 КГц
    Метод сжатия : С потерями
    Размер потока : 68, 1 Мбайт (7%)
    Выравнивание : Разделение по промежуткам
    Продолжительность промежутка : 40 мс. (1, 00 видеокадр)
    Время предзагрузки промежутка : 500 мс.
    Аудио #2
    Идентификатор : 2
    Формат : MPEG Audio
    Версия формата : Version 1
    Профиль формата : Layer 3
    Режим : Joint stereo
    Расширение режима : MS Stereo
    Идентификатор кодека : 55
    Идентификатор кодека/Подсказка : MP3
    Продолжительность : 1 ч. 14 м.
    Вид битрейта : Постоянный
    Битрейт : 128 Кбит/сек
    Каналы : 2 канала
    Частота : 48, 0 КГц
    Метод сжатия : С потерями
    Размер потока : 68, 1 Мбайт (7%)
    Выравнивание : Разделение по промежуткам
    Продолжительность промежутка : 40 мс. О таком странном сюжете не догадывалась даже Земфира. (1, 00 видеокадр)
    Время предзагрузки промежутка : 500 мс.


    Скриншоты для ознакомления




    Онлайн видео Пересекая черту



    Пересекая черту/Переступить черту/Crossing Lines (2015) HDTVRip (сезон 3, серии 1-2 из 12) Sony Turbo (обновляемая)
    загрузка...
    Рейтинг →
     (голосов: 1, оценка 4/5, голосовать можно 1 раз )

    Другие торренты по теме:

  • Пересекая черту / Переступить черту / Crossing Lines (2014) HDTVRip (сезон 2, серии 1-12 из 12) Sony Turbo


    • Комментарии (0):

      Информация

      Информация

        Посетители, находящиеся в группе Гости, не могут оставлять комментарии в данной новости.

        ↓ Меню




        ↓ Опрос

        Вы добавили сайт в закладки?
        Да
        Нет


        Top 10 за месяц (Фильмы)