.
Авторизация | Регистрация
Хочешь лучшие торренты? Добавь свой email!
Добавить

Торрент скачать бесплатно

» » Погоня в степи (1979) VHSRip скачать через торрент бесплатно




    Погоня в степи (1979) VHSRip скачать через торрент бесплатно

    Опубликовал: Админ | Дата: 6-11-2015, 04:00 | Просмотров: 103

    Производство: СССР, Казахфильм
    Жанр: Военный, Драма, Приключения
    Режиссер: Абдулла Карсакбаев

    Актеры
    Досхан Жолжаксынов, Гульнара Дусматова, Улдис Лиелдидж, Ашир Чокубаев, Байтен Омаров, Владимир Ерёмин, Игорь Васильев, Мухтар Бахтыгереев, Джамбул Худайбергенов, Болат Калымбетов, Михаил Васильев, Виталий Гришко

    Описание

    События динамичного, остросюжетного фильма происходят в 20-е годы. Главный герой картины — красный командир Хамит, человек безудержно храбрый, мужественный и преданный своему делу. Его противник — хитрый, коварный и неуловимый атаман Кудре. Выслеживая его банду, Хамит в какой-то момент сам попадает в ловушку и становится пленником атамана.

    Продолжительность: 01: 25: 20
    Качество видео: VHSRip
    Видео: Xvid, 640x352, ~1187 Кбит/сек
    Аудио: MP3, 2 ch, 120 Кбит/сек, CBR
    Код:

    Общее
    Полное имя : E:Погоня в степи (1979) VHSRip.avi
    Формат : AVI
    Формат/Информация : Audio Video Interleave
    Размер файла : 806 Мбайт
    Продолжительность : 1 ч. 25 м.
    Режим общего битрейта : Переменный
    Общий поток : 1320 Кбит/сек
    Программа кодирования : MEncoder Sherpya-SVN-r32492-4.2.5
    Библиотека кодирования : MPlayer
    Видео
    Идентификатор : 0
    Формат : MPEG-4 Visual
    Профиль формата : Simple@L3
    Параметр BVOP формата : Нет
    Параметр QPel формата : Нет
    Параметр GMC формата : Без точки перехода
    Параметр матрицы формата : Default (H.263)
    Идентификатор кодека : XVID
    Идентификатор кодека/Подсказка : XviD
    Продолжительность : 1 ч. 25 м.
    Битрейт : 1187 Кбит/сек
    Ширина : 640 пикселей
    Высота : 352 пикселя
    Соотношение сторон : 16:9
    Частота кадров : 25, 000 кадров/сек
    Цветовое пространство : YUV
    Субдискретизация насыщенности : 4:2:0
    Битовая глубина : 8 бит
    Тип развёртки : Прогрессивная
    Метод сжатия : С потерями
    Бит/(Пиксели*Кадры) : 0.211
    Размер потока : 725 Мбайт (90%)
    Библиотека кодирования : XviD 1.2.1 (UTC 2008-12-04)
    Аудио
    Идентификатор : 1
    Формат : MPEG Audio
    Версия формата : Version 1
    Профиль формата : Layer 3
    Режим : Joint stereo
    Расширение режима : MS Stereo
    Идентификатор кодека : 55
    Идентификатор кодека/Подсказка : MP3
    Продолжительность : 1 ч. 25 м.
    Вид битрейта : Переменный
    Битрейт : 120 Кбит/сек
    Каналы : 2 канала
    Частота : 44, 1 КГц
    Метод сжатия : С потерями
    Размер потока : 73, 4 Мбайт (9%)
    Выравнивание : Соединение по промежуткам
    Продолжительность промежутка : 26 мс. (0, 65 видеокадр)
    Время предзагрузки промежутка : 481 мс.


    Скриншоты для ознакомления




    Погоня в степи (1979) VHSRip
    загрузка...
    Рейтинг →
     (голосов: 1, оценка 5/5, голосовать можно 1 раз )

    Другие торренты по теме:

  • Погоня (1965) SATRip [H.264] скачать через торрент бесплатно
  • Погоня за ледниками / Chasing Ice (2012) BDRip [720p] [hand made 60fps] скачать через торрент бесплатно
  • Погоня за Бенджи / Benji the Hunted (1987) DVD5 скачать через торрент бесплатно
  • Погоня за Бенджи / Benji the Hunted (1987) WEB-DL [H.264 / 720p-LQ] скачать через торрент бесплатно
  • Григорий Поженян | Погоня (1983) [PDF] скачать через торрент бесплатно
  • Погоня за красотой / Bad Hair Day (2015) WEBRip скачать через торрент бесплатно
  • Погоня за красотой / Bad Hair Day (2015) WEBRip скачать через торрент бесплатно
  • Погоня за красотой / Bad Hair Day (2015) WEBRip [H.264] скачать через торрент бесплатно


    • Комментарии (0):

      Информация

      Информация

        Посетители, находящиеся в группе Гости, не могут оставлять комментарии в данной новости.

        ↓ Меню




        ↓ Опрос

        Вы добавили сайт в закладки?
        Да
        Нет


        Top 10 за месяц (Фильмы)