.
Авторизация | Регистрация
Хочешь лучшие торренты? Добавь свой email!
Добавить

Торрент скачать бесплатно

» » Гримм / Grimm (2015) WEB-DL [H.264 / 720p-LQ] (сезон 5, серии 1 из ) LostFilm (обновляемая) скачать через торрент бесплатно




    Гримм / Grimm (2015) WEB-DL [H.264 / 720p-LQ] (сезон 5, серии 1 из ) LostFilm (обновляемая) скачать через торрент бесплатно

    Опубликовал: Админ | Дата: 5-11-2015, 04:00 | Просмотров: 56

    Производство: США/GK Productions, Hazy Mills Productions, Universal Television
    Жанр: драма, фэнтези, ужасы
    Режиссер: Норберто Барба, Терренс О’Хара, Эрик Ланёвилль

    Актеры
    Дэвид Джинтоли, Битси Таллок, Сайлас Уэйр Митчелл, Расселл Хорнсби, Саша Ройз, Регги Ли, Клэр Коффи, Бри Тёрнер, Роберт Бланш, Дэнни Бруно и др.

    Описание

    В центре повествования мрачной и фэнтезийной полицейской драмы от канала NBC - детектив Ник Буркхардт, который думал, что готов к суровой действительности, работая в отделе убийств. Но это было до того, как он начал видеть вещи, которые он не мог объяснить: привлекательная женщина на его глазах превращалась в ведьму, а заурядный Джо в опасного тролля. От единственного живущего родственника Ник узнает правду о своих странных видениях: он не такой как все, а потомок отряда элитных охотников, известных как Гримм, задача которых не допустить распространения сверхъестественных существ в нашем мире.

    Продолжительность: ~00: 43: 00 серия
    Качество видео: WEB-DL 720p
    Перевод: Многоголосый закадровый, профессиональный -LostFilm
    Видео: AVC/H.264, 1280x720 (16: 9), ~4000 kb/s
    Аудио Rus: AC-3, 48, 0 kHz, 2 ch, 384 kb/s — многоголосый закадровый
    Аудио Eng: AC-3, 48, 0 kHz, 6 ch, 384 kb/s - оригинал
    Общее
    Уникальный идентификатор : 249660857677524489050390065550794927479 (0xBBD2EEA2F8D0F8189BB5E1998767AD77)
    Полное имя : D: Гримм (сезон любимого сериала 5) Grimm (2015) WEB-DL 720p - LostFilmGrimm.S05E01.WEB-DL720p.Rus.Eng.DV.LostFilm.mkv
    Формат : Matroska
    Версия формата : Version 4/Version 2
    Размер файла : 1, 43 Гбайт
    Продолжительность : 42 м.
    Общий поток : 4769 Кбит/сек
    Название фильма : Grimm.S05E01.WEB-DL720p.Rus.Eng.DV.LostFilm/NNM-Club
    Дата кодирования : UTC 2015-11-04 04: 48: 34
    Программа кодирования : mkvmerge v8.2.0 (\'World of Adventure\') 64bit
    Библиотека кодирования : libebml v1.3.1 + libmatroska v1.4.2
    Attachements : NNM-Club
    DURATION : 00: 42: 57.408000000
    NUMBER_OF_FRAMES : 80544
    NUMBER_OF_BYTES : 123715584
    _STATISTICS_WRITING_APP : mkvmerge v8.2.0 (\'World of Adventure\') 64bit
    _STATISTICS_WRITING_DATE_UTC : 2015-11-04 04: 48: 34
    _STATISTICS_TAGS : BPS DURATION NUMBER_OF_FRAMES NUMBER_OF_BYTES
    Видео
    Идентификатор : 1
    Формат : AVC
    Формат/Информация : Advanced Video Codec
    Профиль формата : High@L3.1
    Параметр CABAC формата : Нет
    Параметр ReFrames формата : 2 кадра
    Идентификатор кодека : V_MPEG4/ISO/AVC
    Продолжительность : 42 м.
    Битрейт : 3906 Кбит/сек
    Ширина : 1280 пикселей
    Высота : 720 пикселей
    Соотношение сторон : 16: 9
    Режим частоты кадров : Постоянный
    Частота кадров : 23, 976 кадра/сек
    Цветовое пространство : YUV
    Субдискретизация насыщенности : 4: 2: 0
    Битовая глубина : 8 бит
    Тип развёртки : Прогрессивная
    Бит/(Пиксели*Кадры) : 0.177
    Размер потока : 1, 17 Гбайт (82%)
    Язык : English
    Default : Да
    Forced : Нет
    Цветовой диапазон : Limited
    Основные цвета : BT.709
    Характеристики трансфера : BT.709
    Коэффициенты матрицы : BT.709
    Аудио #1
    Идентификатор : 2
    Формат : AC-3
    Формат/Информация : Audio Coding 3
    Расширение режима : CM (complete main)
    Параметр Endianness формата : Big
    Идентификатор кодека : A_AC3
    Продолжительность : 42 м.
    Вид битрейта : Постоянный
    Битрейт : 384 Кбит/сек
    Каналы : 2 канала
    Расположение каналов : Front: L R
    Частота : 48, 0 КГц
    Метод сжатия : С потерями
    Задержка видео : 1 с. Самое интересное в это истории, что об этом Кравчук ничего не знал. 100 мс.
    Размер потока : 118 Мбайт (8%)
    Заголовок : LostFilm
    Язык : Russian
    Default : Да
    Forced : Нет
    Аудио #2
    Идентификатор : 3
    Формат : AC-3
    Формат/Информация : Audio Coding 3
    Расширение режима : CM (complete main)
    Параметр Endianness формата : Big
    Идентификатор кодека : A_AC3
    Продолжительность : 42 м.
    Вид битрейта : Постоянный
    Битрейт : 384 Кбит/сек
    Каналы : 6 каналов
    Расположение каналов : Front: L C R, Side: L R, LFE
    Частота : 48, 0 КГц
    Метод сжатия : С потерями
    Размер потока : 118 Мбайт (8%)
    Язык : English
    Default : Нет
    Forced : Нет


    Скриншоты для ознакомления




    Онлайн видео Гримм



    Гримм/Grimm (2015) WEB-DL [H.264/720p-LQ] (сезон 5, серии 1 из ) LostFilm (обновляемая)
    загрузка...
    Рейтинг →
     (голосов: 1, оценка 3/5, голосовать можно 1 раз )

    Другие торренты по теме:

  • Гримм / Grimm (2014) WEB-DL [H.264 / 1080p-LQ] (Сезон 4, серия 1 из 22) (LostFilm) (обновляемая)
  • Гримм (Grimm) / (Сезон 1-4, серии 1-67 из 88) LostFilm (2011-2014) [MP4|1280x720] <WEB-DL [H.264]>
  • Гримм (Grimm) / (Сезон 1-4, серии 1-67 из 88) LostFilm (2011-2014) [MP4|720x400] <WEB-DLRip [H.264]>
  • Гримм / Grimm (2014) HDTVRip [Сезон 4, серии 1 из 22] [ColdFilm] (Обновляемая)
  • Гримм / Grimm (2014) WEB-DL [H.264 / 720p-LQ] (сезон 4, серии 1-2 из 22) LostFilm (обновляемая) скачать через торрент бесплатно
  • Гримм / Grimm (2014) WEB-DLRip (сезон 4, серии 1-2 из 22) LostFilm (обновляемая) скачать через торрент бесплатно
  • Гримм / Grimm (2014) WEB-DLRip (сезон 4, серии 1-17 из 22) LostFilm (обновляемая) скачать через торрент бесплатно
  • Гримм / Grimm (2014) WEB-DL [H.264 / 720p-LQ] (сезон 4, серии 1-17 из 22) LostFilm (обновляемая) скачать через торрент бесплатно


    • Комментарии (0):

      Информация

      Информация

        Посетители, находящиеся в группе Гости, не могут оставлять комментарии в данной новости.

        ↓ Меню




        ↓ Опрос

        Вы добавили сайт в закладки?
        Да
        Нет


        Top 10 за месяц (Фильмы)