.
Авторизация | Регистрация
Хочешь лучшие торренты? Добавь свой email!
Добавить

Торрент скачать бесплатно

» » Легенды / Legends (2015) WEB-DLRip (сезон 2, серии 1 из 10) LostFilm (обновляемая) скачать через торрент бесплатно




    Легенды / Legends (2015) WEB-DLRip (сезон 2, серии 1 из 10) LostFilm (обновляемая) скачать через торрент бесплатно

    Опубликовал: Админ | Дата: 3-11-2015, 04:00 | Просмотров: 112

    Производство: США
    Жанр: боевик, триллер, драма, криминал
    Режиссер: Брэд Тернер, Джон Беринг, Милан Чейлов

    Актеры
    Шон Бин, Эли Лартер, Тина Мажорино, Эмбер Валлетта, Мэйсон Кук, Стив Харрис, Келли Овертон, Моррис Честнат, Маршалл Белл, Алон Абутбул и др.

    Описание

    Работая на ФБР, Мартин специализировался на работе под глубоким прикрытием, буквально полностью перевоплощался в другую личность, теперь же он простой частный детектив. Жизнь главного героя круто меняется, когда Мартин узнает, что, возможно, он не тот, кем себя считает. И теперь ему предстоит докопаться до истины: он страдает заурядным раздвоением личности или является частью тайного плана ЦРУ?

    Продолжительность: ~00: 43: 00 серия
    Качество видео: WEB-DLRip
    Перевод: Многоголосый закадровый, профессиональный -LostFilm
    Видео: XviD, 720x400 (16: 9), ~1244 kb/s
    Аудио Rus: MPEG Layer 3, 48, 0 kHz, 2 ch, 192 kb/s — многоголосый закадровый
    Общее
    Полное имя : D: Легенды (сезон любимого сериала 2) Legends (2015) WEB-DLRip - LostFilmLegends.S02E01.rus.LostFilm.TV.avi
    Формат : AVI
    Формат/Информация : Audio Video Interleave
    Размер файла : 445 Мбайт
    Продолжительность : 43 м.
    Режим общего битрейта : Переменный
    Общий поток : 1445 Кбит/сек
    Программа кодирования : Nandub v1.0rc2
    Библиотека кодирования : Nandub build 1853/release
    Видео
    Идентификатор : 0
    Формат : MPEG-4 Visual
    Профиль формата : Advanced Simple@L5
    Параметр BVOP формата : Нет
    Параметр QPel формата : Нет
    Параметр GMC формата : Без точки перехода
    Параметр матрицы формата : Default (H.263)
    Идентификатор кодека : XVID
    Идентификатор кодека/Подсказка : XviD
    Продолжительность : 43 м.
    Битрейт : 1244 Кбит/сек
    Ширина : 720 пикселей
    Высота : 400 пикселей
    Соотношение сторон : 16: 9
    Частота кадров : 23, 976 кадра/сек
    Цветовое пространство : YUV
    Субдискретизация насыщенности : 4: 2: 0
    Битовая глубина : 8 бит
    Тип развёртки : Прогрессивная
    Метод сжатия : С потерями
    Бит/(Пиксели*Кадры) : 0.180
    Размер потока : 383 Мбайт (86%)
    Библиотека кодирования : XviD 1.2.1 (UTC 2008-12-04)
    Аудио
    Идентификатор : 1
    Формат : MPEG Audio
    Версия формата : Version 1
    Профиль формата : Layer 3
    Режим : Joint stereo
    Расширение режима : MS Stereo
    Идентификатор кодека : 55
    Идентификатор кодека/Подсказка : MP3
    Продолжительность : 43 м.
    Вид битрейта : Переменный
    Битрейт : 192 Кбит/сек
    Каналы : 2 канала
    Частота : 48, 0 КГц
    Метод сжатия : С потерями
    Размер потока : 58, 1 Мбайт (13%)
    Выравнивание : Соединение по промежуткам
    Продолжительность промежутка : 24 мс. (0, 58 видеокадр)
    Время предзагрузки промежутка : 484 мс.
    Библиотека кодирования : LAME3.97b
    Настройки программы : -m j -V 4 -q 3 -lowpass 18.6 --abr 192


    Скриншоты для ознакомления




    Онлайн видео Легенды



    Легенды/Legends (2015) WEB-DLRip (сезон 2, серии 1 из 10) LostFilm (обновляемая)
    загрузка...
    Рейтинг →
     (голосов: 1, оценка 3/5, голосовать можно 1 раз )

    Другие торренты по теме:

  • Легенды / Legends (2014) WEB-DLRip [H.264 / 720p-LQ] (сезон 1, серии 1-7 из 10) LostFilm (обновляемая)
  • Легенды / Legends (2014) WEB-DLRip (Сезон 1, серии 1-7 из 10) LostFilm (Обновляемая)
  • Легенды / Legends (2014) WEB-DLRip [H.264 / 1080p-LQ] (Сезон 1, серии 1-7 из 10) LostFilm (Обновляемая)
  • Легенды / Legends (2014) WEB-DLRip (Сезон 1, серия 01-07 из 10) (AlexFilm) (обновляемая)
  • Легенды / Legends (2014) WEB-DL [H.264 / 720p-LQ] (Сезон 1, Серии 1-7 из 10) AlexFilm (обновляемая)
  • Легенды / Legends (2014) WEB-DLRip (Сезон 1, серия 01-07 из 10) (NewStudio) (обновляемая)
  • Легенды (Legends) / (Сезон 1, серии 1-7 из 10) BaibaKo (2014) [MP4|720x400] <WEB-DLRip H.264>
  • Легенды (Legends) / (Сезон 1, серии 1-6 из 10) LostFilm (2014) [MP4|1280x720] <WEB-DL H.264>


    • Комментарии (0):

      Информация

      Информация

        Посетители, находящиеся в группе Гости, не могут оставлять комментарии в данной новости.

        ↓ Меню




        ↓ Опрос

        Вы добавили сайт в закладки?
        Да
        Нет


        Top 10 за месяц (Фильмы)