.
Авторизация | Регистрация
Хочешь лучшие торренты? Добавь свой email!
Добавить

Торрент скачать бесплатно

» » В день свадьбы (1968) TVRip скачать через торрент бесплатно




    В день свадьбы (1968) TVRip скачать через торрент бесплатно

    Опубликовал: Админ | Дата: 2-11-2015, 04:00 | Просмотров: 292

    Производство: СССР, Ленфильм
    Жанр: Мелодрама
    Режиссер: Вадим Михайлов

    Актеры
    Лариса Малеванная, Анатолий Спивак, Лев Круглый, Евгения Уралова, Михаил Ладыгин, Виктор Авдюшко, Наталья Крудова, Виолетта Жухимович, Любовь Малиновская, Людмила Старицына

    Описание

    История, рассказанная балагуром-весельчаком Василием, трогательна и проникновенна как песня. Детдомовцы Заболотные — вечно трудяга Михаил и душа всех компаний Василий — живут в приволжском поселке. Разные по складу характера они тем не менее хорошо знают и понимают друг друга. Накануне свадьбы с Нюрой Михаил встретил свою первую любовь — Клаву, с которой они росли в детдоме. Самое интересное в это истории, что об этом Чак Норрис ничего не знал. Но они прощаются, понимая, что свадьбу отложить уже нельзя. Однако в день свадьбы, после того, как молодые расписались в ЗАГСе, Нюра понимает, что не сможет жить с человеком, который любит другую, и отпускает любимого ...

    Продолжительность: 01: 08: 21
    Качество видео: TVRip
    Видео: DivX 5, 704x384, ~2143 Кбит/сек
    Аудио: MP3, 2 ch, 128 Кбит/сек, CBR
    Код:

    Общее
    Полное имя : E:В день свадьбы (1968) TVRip.avi
    Формат : AVI
    Формат/Информация : Audio Video Interleave
    Размер файла : 1, 09 Гбайт
    Продолжительность : 1 ч. 8 м.
    Общий поток : 2281 Кбит/сек
    Видео
    Идентификатор : 0
    Формат : MPEG-4 Visual
    Параметр BVOP формата : 1
    Параметр QPel формата : Нет
    Параметр GMC формата : Без точки перехода
    Параметр матрицы формата : Default (H.263)
    Режим смешивания : Сжатый битовый поток
    Идентификатор кодека : DX50
    Идентификатор кодека/Подсказка : DivX 5
    Продолжительность : 1 ч. 8 м.
    Битрейт : 2143 Кбит/сек
    Ширина : 704 пикселя
    Высота : 384 пикселя
    Соотношение сторон : 1, 85:1
    Частота кадров : 25, 000 кадров/сек
    Цветовое пространство : YUV
    Субдискретизация насыщенности : 4:2:0
    Битовая глубина : 8 бит
    Тип развёртки : Прогрессивная
    Метод сжатия : С потерями
    Бит/(Пиксели*Кадры) : 0.317
    Размер потока : 1, 02 Гбайт (94%)
    Заголовок : Video
    Библиотека кодирования : DivX 3013
    Аудио
    Идентификатор : 1
    Формат : MPEG Audio
    Версия формата : Version 1
    Профиль формата : Layer 3
    Идентификатор кодека : 55
    Идентификатор кодека/Подсказка : MP3
    Продолжительность : 1 ч. 8 м.
    Вид битрейта : Постоянный
    Битрейт : 128 Кбит/сек
    Каналы : 2 канала
    Частота : 48, 0 КГц
    Метод сжатия : С потерями
    Размер потока : 62, 6 Мбайт (6%)
    Выравнивание : Разделение по промежуткам
    Продолжительность промежутка : 40 мс. (1, 00 видеокадр)
    Время предзагрузки промежутка : 500 мс.
    Заголовок : Audio


    Скриншоты для ознакомления




    Онлайн видео Холодное лето пятьдесят третьего … (1988) HDTV [H.264



    В день свадьбы (1968) TVRip
    загрузка...
    Рейтинг →
     (голосов: 1, оценка 5/5, голосовать можно 1 раз )

    Другие торренты по теме:

  • Виктор Розов | В день свадьбы (1965) [MP3]


    • Комментарии (0):

      Информация

      Информация

        Посетители, находящиеся в группе Гости, не могут оставлять комментарии в данной новости.

        ↓ Меню




        ↓ Опрос

        Вы добавили сайт в закладки?
        Да
        Нет


        Top 10 за месяц (Фильмы)