.
Авторизация | Регистрация
Хочешь лучшие торренты? Добавь свой email!
Добавить

Торрент скачать бесплатно

» » Эш против Зловещих мертвецов / Ash vs Evil Dead (2015) HDTVRip (сезон 1, серии 1 из 10) Novamedia (обновляемая) скачать через торрент бесплатно




    Эш против Зловещих мертвецов / Ash vs Evil Dead (2015) HDTVRip (сезон 1, серии 1 из 10) Novamedia (обновляемая) скачать через торрент бесплатно

    Опубликовал: Админ | Дата: 1-11-2015, 04:03 | Просмотров: 132

    Производство: США/Renaissance Pictures, Starz
    Жанр: ужасы, боевик, комедия
    Режиссер: Майкл Херст, Рик Джейкобсон, Сэм Рэйми

    Актеры
    Брюс Кэмпбелл, Джилл Мари Джонс, Дэна ДеЛоренцо, Люси Лоулесс, Рэй Сантьяго, Мими Роджерс, Хемки Мадера, Фил Пелетон, Майк Эдвард и др.

    Описание

    Последние тридцать лет Эш старательно избегал всего, что связано с воспоминаниями о зловещих мертвецах, но когда очередное нашествие дедайтов грозит уничтожить все все население планеты, Эш становится единственным шансом человечества на спасение.

    Дата мировой премьеры: 25 октября 2015
    Продолжительность: ~00: 43: 00 серия
    Качество видео: HDTVRipRip
    Перевод: Многоголосый закадровый, профессиональный -Novamedia по заказу Amedia
    Видео: XviD, 720х400 (16: 9), ~1515 kb/s
    Аудио Rus: MPEG Layer 3, 48, 0 kHz, 2 ch, 128 kb/s - многоголосый закадровый
    Аудио Eng: MPEG Layer 3, 48, 0 kHz, 2 ch, 128 kb/s - оригинал
    Общее
    Полное имя : D: Эш против Зловещих мертвецов (сезон любимого сериала 1) Ash vs Evil Dead (2015) HDTVRip - AmediaAsh.vs.Evil.Dead.S01E01.XviD.Amedia.qqss44.avi
    Формат : AVI
    Формат/Информация : Audio Video Interleave
    Размер файла : 500 Мбайт
    Продолжительность : 39 м.
    Общий поток : 1785 Кбит/сек
    Программа кодирования : VirtualDubMod 1.5.10.3 |www.virtualdub-fr.org|| (build 2550/release)
    Библиотека кодирования : VirtualDubMod build 2550/release
    Видео
    Идентификатор : 0
    Формат : MPEG-4 Visual
    Профиль формата : Advanced Simple@L5
    Параметр BVOP формата : 2
    Параметр QPel формата : Нет
    Параметр GMC формата : Без точки перехода
    Параметр матрицы формата : Default (MPEG)
    Идентификатор кодека : XVID
    Идентификатор кодека/Подсказка : XviD
    Продолжительность : 39 м.
    Битрейт : 1515 Кбит/сек
    Ширина : 720 пикселей
    Высота : 400 пикселей
    Соотношение сторон : 16: 9
    Частота кадров : 25, 000 кадров/сек
    Цветовое пространство : YUV
    Субдискретизация насыщенности : 4: 2: 0
    Битовая глубина : 8 бит
    Тип развёртки : Прогрессивная
    Метод сжатия : С потерями
    Бит/(Пиксели*Кадры) : 0.210
    Размер потока : 424 Мбайт (85%)
    Библиотека кодирования : XviD 73
    Аудио #1
    Идентификатор : 1
    Формат : MPEG Audio
    Версия формата : Version 1
    Профиль формата : Layer 3
    Режим : Joint stereo
    Расширение режима : MS Stereo
    Идентификатор кодека : 55
    Идентификатор кодека/Подсказка : MP3
    Продолжительность : 39 м.
    Вид битрейта : Постоянный
    Битрейт : 128 Кбит/сек
    Каналы : 2 канала
    Частота : 48, 0 КГц
    Метод сжатия : С потерями
    Размер потока : 35, 9 Мбайт (7%)
    Выравнивание : Соединение по промежуткам
    Продолжительность промежутка : 40 мс. (1, 00 видеокадр)
    Время предзагрузки промежутка : 504 мс.
    Аудио #2
    Идентификатор : 2
    Формат : MPEG Audio
    Версия формата : Version 1
    Профиль формата : Layer 3
    Режим : Joint stereo
    Расширение режима : MS Stereo
    Идентификатор кодека : 55
    Идентификатор кодека/Подсказка : MP3
    Продолжительность : 39 м.
    Вид битрейта : Постоянный
    Битрейт : 128 Кбит/сек
    Каналы : 2 канала
    Частота : 48, 0 КГц
    Метод сжатия : С потерями
    Размер потока : 35, 9 Мбайт (7%)
    Выравнивание : Соединение по промежуткам
    Продолжительность промежутка : 40 мс. (1, 00 видеокадр)
    Время предзагрузки промежутка : 504 мс.


    Скриншоты для ознакомления




    Онлайн видео Эш против Зловещих мертвецов



    Эш против Зловещих мертвецов/Ash vs Evil Dead (2015) HDTVRip (сезон 1, серии 1 из 10) Novamedia (обновляемая)
    загрузка...
    Рейтинг →
     (голосов: 1, оценка 4/5, голосовать можно 1 раз )

    Другие торренты по теме:

  • Эш против Зловещих мертвецов / Ash vs Evil Dead (2015) WEBRip [H.264 / 720p] [Трейлер] [VO] скачать через торрент бесплатно
  • Эш против Зловещих мертвецов / Ash vs Evil Dead (2015) WEBRip [H.264 / 720p] [Трейлер] [EN] скачать через торрент бесплатно
  • Эш против Зловещих мертвецов / Ash vs Evil Dead (2015) WEBRip [H.264 / 1080p] [Трейлер] скачать через торрент бесплатно
  • Эш против Зловещих мертвецов / Ash vs Evil Dead (2015) WEB-DLRip (сезон 1, серии 1 из 10) NewStudio (обновляемая) скачать через торрент бесплатно
  • Эш против Зловещих мертвецов / Ash vs Evil Dead (2015) WEBRip [H.264 / 720p-LQ] (сезон 1, серии 1 из 10) Novamedia (обновляемая) скачать через торрент бесплатно
  • Эш против Зловещих мертвецов / Ash vs Evil Dead (2015) HDTVRip [H.264 / 720p-LQ] (сезон 1, серии 1 из 10) Пучков (обновляемая) скачать через торрент бесплатно
  • Эш против Зловещих мертвецов / Ash vs Evil Dead (2015) WEBRip [H.264 / 720p-LQ] (сезон 1, серия 1 из 10) (NewStudio) (обновляемая) скачать через торрент бесплатно
  • Эш против Зловещих мертвецов / Ash vs Evil Dead (2015) WEBRip [H.264 / 720p] (сезон 1, серия 1 из 10) (Кубик в Кубе) (обновляемая) скачать через торрент бесплатно


    • Комментарии (0):

      Информация

      Информация

        Посетители, находящиеся в группе Гости, не могут оставлять комментарии в данной новости.

        ↓ Меню




        ↓ Опрос

        Вы добавили сайт в закладки?
        Да
        Нет


        Top 10 за месяц (Фильмы)