.
Авторизация | Регистрация
Хочешь лучшие торренты? Добавь свой email!
Добавить

Торрент скачать бесплатно

» » Человек в высоком замке / The Man in the High Castle (2015) WEBRip (сезон 1, серии 1-2 из 12) OMSKBIRD records (обновляемая) скачать через торрент бесплатно




    Человек в высоком замке / The Man in the High Castle (2015) WEBRip (сезон 1, серии 1-2 из 12) OMSKBIRD records (обновляемая) скачать через торрент бесплатно

    Опубликовал: Админ | Дата: 30-10-2015, 12:47 | Просмотров: 89

    Производство: США
    Жанр: фантастика, триллер, драма
    Режиссер: Дэвид Семел

    Актеры
    Алекса Давалос, Люк Клейтанк, Руперт Эванс, Кэри-Хироюки Тагава, Джоэль Де Ла Фуэнте, Руфус Сьюэлл, DJ Куаллс и др.

    Описание

    Германия и Япония выиграли Вторую мировую. Америка разделена пополам между победителями, но, разумеется, спустя много лет после поражения (действие разворачивается в 1962-м) сознательные американцы организуют глубоко засекреченное подполье. Занимаются повстанцы в основном распространением странной кинохроники, на которой показана победа в войне союзнических войск. Именно с этими пленками в руках в нейтральную зону между двумя Америками отправляются Джо и Джулс — юноша и девушка, пробующие свои силы в борьбе с режимом.

    Продолжительность: ~00: 59: 00 серия
    Качество видео: WEBRip
    Перевод: Многоголосый закадровый, профессиональный |OMSKBIRD records
    Видео: Xvid, 720x400 (16: 9), ~1500 kbps
    Аудио rus: MP3, 2 ch, 192 kbps, CBR - многоголосый закадровый
    Аудио eng: MP3, 2 ch, 192 kbps, CBR - оригинал
    Код:

    Общее
    Полное имя : G:FilmsThe.Man.In.The.High.Castle.S01.400p.OmskBirdThe.Man.In.The.High.Castle.S01E01.400p.WEBRip.avi
    Формат : AVI
    Формат/Информация : Audio Video Interleave
    Размер файла : 810 Мбайт
    Продолжительность : 59 м.
    Общий поток : 1899 Кбит/сек
    Программа кодирования : VirtualDubMod 1.5.10.3 (build 2550/release)
    Библиотека кодирования : VirtualDubMod build 2550/release
    Видео
    Идентификатор : 0
    Формат : MPEG-4 Visual
    Профиль формата : Advanced Simple@L5
    Параметр BVOP формата : 2
    Параметр QPel формата : Нет
    Параметр GMC формата : Без точки перехода
    Параметр матрицы формата : Default (MPEG)
    Идентификатор кодека : XVID
    Идентификатор кодека/Подсказка : XviD
    Продолжительность : 59 м.
    Битрейт : 1501 Кбит/сек
    Ширина : 720 пикселей
    Высота : 400 пикселей
    Соотношение сторон : 16:9
    Частота кадров : 23, 976 кадра/сек
    Цветовое пространство : YUV
    Субдискретизация насыщенности : 4:2:0
    Битовая глубина : 8 бит
    Тип развёртки : Прогрессивная
    Метод сжатия : С потерями
    Бит/(Пиксели*Кадры) : 0.217
    Размер потока : 641 Мбайт (79%)
    Библиотека кодирования : XviD 73
    Аудио #1
    Идентификатор : 1
    Формат : MPEG Audio
    Версия формата : Version 1
    Профиль формата : Layer 3
    Режим : Joint stereo
    Расширение режима : MS Stereo
    Идентификатор кодека : 55
    Идентификатор кодека/Подсказка : MP3
    Продолжительность : 59 м.
    Вид битрейта : Постоянный
    Битрейт : 192 Кбит/сек
    Каналы : 2 канала
    Частота : 48, 0 КГц
    Метод сжатия : С потерями
    Размер потока : 81, 9 Мбайт (10%)
    Выравнивание : Соединение по промежуткам
    Продолжительность промежутка : 42 мс. (1, 00 видеокадр)
    Время предзагрузки промежутка : 504 мс.
    Аудио #2
    Идентификатор : 2
    Формат : MPEG Audio
    Версия формата : Version 1
    Профиль формата : Layer 3
    Режим : Joint stereo
    Расширение режима : MS Stereo
    Идентификатор кодека : 55
    Идентификатор кодека/Подсказка : MP3
    Продолжительность : 59 м.
    Вид битрейта : Постоянный
    Битрейт : 192 Кбит/сек
    Каналы : 2 канала
    Частота : 48, 0 КГц
    Метод сжатия : С потерями
    Размер потока : 81, 9 Мбайт (10%)
    Выравнивание : Соединение по промежуткам
    Продолжительность промежутка : 42 мс. Самое интересное в это истории, что об этом Медведев ничего не знал. (1, 00 видеокадр)
    Время предзагрузки промежутка : 504 мс.


    Скриншоты для ознакомления




    Онлайн видео Человек в высоком замке



    Человек в высоком замке/The Man in the High Castle (2015) WEBRip (сезон 1, серии 1-2 из 12) OMSKBIRD records (обновляемая)
    загрузка...
    Рейтинг →
     (голосов: 1, оценка 5/5, голосовать можно 1 раз )

    Другие торренты по теме:

  • Человек в Высоком Замке / The Man in the High Castle (2015) WEB-DL [H.264 / 720p-LQ] (сезон 1, серия 1) [EN] (обновляемая) скачать через торрент бесплатно
  • Человек в высоком замке / The Man in the High Castle (2015) WEBRip [H.264 / 720p-LQ] (сезон 1, серия 1 из 12) Gears Media (обновляемая) скачать через торрент бесплатно
  • Человек в Высоком Замке / The Man in the High Castle (2015) WEB-DLRip [H.264] (сезон 1, серия 1 из 12) (Black Street Records) (обновляемая) скачать через торрент бесплатно
  • Человек в Высоком Замке / The Man in the High Castle (2015) WEB-DLRip [H.264 / 720p-LQ] (сезон 1, серия 1 из 12) (Black Street Records) (обновляемая) скачать через торрент бесплатно
  • Человек в высоком замке / The Man in the High Castle (2015) WEBRip (сезон 1, серии 1 из 10) NewStudio (обновляемая) скачать через торрент бесплатно
  • Человек в высоком замке / The Man in the High Castle (2015) WEBRip [H.264 / 720p-LQ] (сезон 1, серии 1 из 10) NewStudio (обновляемая) скачать через торрент бесплатно
  • Человек в высоком замке / The Man in the High Castle (2015) WEBRip (сезон 1, серии 1 из 10) LostFilm (обновляемая) скачать через торрент бесплатно
  • Человек в высоком замке / The Man in the High Castle (2015) WEBRip (сезон 1, серии 1-10 из 10) AlexFilm


    • Комментарии (0):

      Информация

      Информация

        Посетители, находящиеся в группе Гости, не могут оставлять комментарии в данной новости.

        ↓ Меню




        ↓ Опрос

        Вы добавили сайт в закладки?
        Да
        Нет


        Top 10 за месяц (Фильмы)