.
Авторизация | Регистрация
Хочешь лучшие торренты? Добавь свой email!
Добавить

Торрент скачать бесплатно

» » Молодёжка (2015) WEB-DLRip (сезон 3, серии 1-4 из 40) (обновляемая) скачать через торрент бесплатно




    Молодёжка (2015) WEB-DLRip (сезон 3, серии 1-4 из 40) (обновляемая) скачать через торрент бесплатно

    Опубликовал: Админ | Дата: 29-10-2015, 04:00 | Просмотров: 58

    Производство: Россия/Арт Пикчерс Вижн
    Жанр: драма, спорт
    Режиссер: Андрей Головков
    Продюсеры: Вячеслав Муругов, Федор Бондарчук, Дмитрий Табарчук

    Актеры
    Денис Никифоров, Михаил Жигалов, Фёдор Бондарчук, Сергей Габриэлян, Владимир Зайцев, Сергей Комаров, Анатолий Лобоцкий, Ксения Лаврова-Глинка, Серафима Низовская, Валентина Ананьина и др.

    Описание

    3 сезон любимого сериала сериала Молодёжка, как и предыдущий, будет полон сюрпризов и перемен: в команде появятся новые игроки и тренер-иностранец. Как сложатся его отношения с Сергеем Макеевым и кто теперь играет за Медведей, узнает тот, кто будет смотреть новый сезон любимого сериала Молодёжки. Сериал, впрочем, не только о спорте, но и о любви, дружбе, выборе своего пути. Поэтому в новых сериях можно будет увидеть личностное развитие любимых персонажей и новых героев. Одни из них станут родителями, другие поймут, что настало время что-то менять, а некоторые проявят себя с неожиданной стороны.

    Продолжительность: ~ 00: 46: 00 серия
    Качество видео: WEB-DLRip
    Видео: XviD, 704x400 (16: 9), ~ 1700 Кбит/сек
    Аудио: MP3, 2 канала, 128 Кбит/сек
    Код:
    General
    Complete name : Molodjozhka.s03.e01.WEB-DLRip.avi
    Format : AVI
    Format/Info : Audio Video Interleave
    File size : 651 MiB
    Duration : 48mn 35s
    Overall bit rate : 1 872 Kbps
    Writing application : VirtualDubMod 1.5.10.3 |www.virtualdub-fr.org|| (build 2550/release)
    Writing library : VirtualDubMod build 2550/release
    Video
    ID : 0
    Format : MPEG-4 Visual
    Format profile : Advanced Simple@L5
    Format settings, BVOP : 1
    Format settings, QPel : No
    Format settings, GMC : No warppoints
    Format settings, Matrix : Custom
    Codec ID : XVID
    Codec ID/Hint : XviD
    Duration : 48mn 35s
    Bit rate : 1 735 Kbps
    Width : 704 pixels
    Height : 400 pixels
    Display aspect ratio : 16:9
    Frame rate : 25.000 fps
    Color space : YUV
    Chroma subsampling : 4:2:0
    Bit depth : 8 bits
    Scan type : Progressive
    Compression mode : Lossy
    Bits/(Pixel*Frame) : 0.246
    Stream size : 603 MiB (93%)
    Writing library : XviD 73
    Audio
    ID : 1
    Format : MPEG Audio
    Format version : Version 1
    Format profile : Layer 3
    Codec ID : 55
    Codec ID/Hint : MP3
    Duration : 48mn 35s
    Bit rate mode : Constant
    Bit rate : 128 Kbps
    Channel(s) : 2 channels
    Sampling rate : 48.0 KHz
    Compression mode : Lossy
    Stream size : 44.5 MiB (7%)
    Alignment : Aligned on interleaves
    Interleave, duration : 40 ms (1.00 video frame)
    Interleave, preload duration : 504 ms
    Writing library : LAME3.99r
    Encoding settings : -m s -V 4 -q 5 -lowpass 17 -b 128
    Автор рипа - ivandubskoj


    Скриншоты для ознакомления




    Онлайн видео Молодёжка (2015) WEB



    Молодёжка (2015) WEB-DLRip (сезон 3, серии 1-4 из 40) (обновляемая)
    загрузка...
    Рейтинг →
     (голосов: 1, оценка 4/5, голосовать можно 1 раз )

    Другие торренты по теме:

  • Молодёжка (2016-2017) WEB-DLRip (сезон 4, серии 1-28 из 52) (обновляемая)


    • Комментарии (0):

      Информация

      Информация

        Посетители, находящиеся в группе Гости, не могут оставлять комментарии в данной новости.

        ↓ Меню




        ↓ Опрос

        Вы добавили сайт в закладки?
        Да
        Нет


        Top 10 за месяц (Фильмы)