.
Авторизация | Регистрация
Хочешь лучшие торренты? Добавь свой email!
Добавить

Торрент скачать бесплатно

» » Чума / Девяностые (2015) HDTVRip (серии 1-2 из 24) (обновляемая) скачать через торрент бесплатно




    Чума / Девяностые (2015) HDTVRip (серии 1-2 из 24) (обновляемая) скачать через торрент бесплатно

    Опубликовал: Админ | Дата: 28-10-2015, 16:21 | Просмотров: 59

    Телекомпания: Россия/Студия КонтАкт продакшн по заказу АОТелекомпания НТВ
    Жанр: драма
    Режиссер: Алексей Козлов, Александр Устюгов

    Актеры
    Сергей Жарков, Александр Устюгов, Юрий Беляев, Борис Щербаков, Екатерина Климова, Сергей Селин, Андрей Горбачёв, Светлана Смирнова-Марцинкевич, Наталья Ткаченко, Никита Рогов и др.

    Описание

    Чума – фильм о нас и о девяностых. Белая ворона, сказал кто то из толпы, к чему не понятно. Рушится эпоха, на смену ей приходит другая. Мужчины – любят деньги, женщины – любят тех, у кого они есть! Героям фильма нужно вписаться в обстоятельства новой жизни, но далеко не у всех это получается. Жизнь людей происходит на разных полюсах криминальной эпохи: взлет олигархов и обнищание народа. Эта жизнь раздаёт дивиденды не по заслугам и справедливости, а по законам волчьей стаи, где выживает сильнейший.

    Дата премьеры в РФ: 26 октября 2015
    Продолжительность: ~00: : 45: 00 серия
    Качество видео: HDTVRip
    Видео: XviD, 720х400 (16: 9), ~1500 Kbps
    Аудио: AC3, 48 kHz, , 2 ch, 192 kbps
    Код:

    Общее
    Полное имя : D:Чума.HDTVRip1.Chiuma.90.2015.HDTVRip.Files-x.avi
    Формат : AVI
    Формат/Информация : Audio Video Interleave
    Размер файла : 549 Мбайт
    Продолжительность : 45 м.
    Общий поток : 1703 Кбит/сек
    Программа кодирования : VirtualDubModRus 1.5.10.2 (build 2542/release)
    Библиотека кодирования : VirtualDubMod build 2542/release
    Видео
    Идентификатор : 0
    Формат : MPEG-4 Visual
    Профиль формата : Advanced Simple@L5
    Параметр BVOP формата : 1
    Параметр QPel формата : Нет
    Параметр GMC формата : Без точки перехода
    Параметр матрицы формата : Выборочная
    Идентификатор кодека : XVID
    Идентификатор кодека/Подсказка : XviD
    Продолжительность : 45 м.
    Битрейт : 1501 Кбит/сек
    Ширина : 720 пикселей
    Высота : 400 пикселей
    Соотношение сторон : 16:9
    Частота кадров : 25, 000 кадров/сек
    Цветовое пространство : YUV
    Субдискретизация насыщенности : 4:2:0
    Битовая глубина : 8 бит
    Тип развёртки : Прогрессивная
    Метод сжатия : С потерями
    Бит/(Пиксели*Кадры) : 0.208
    Размер потока : 484 Мбайт (88%)
    Библиотека кодирования : XviD 73
    Аудио
    Идентификатор : 1
    Формат : AC-3
    Формат/Информация : Audio Coding 3
    Расширение режима : CM (complete main)
    Параметр Endianness формата : Big
    Идентификатор кодека : 2000
    Продолжительность : 45 м.
    Вид битрейта : Постоянный
    Битрейт : 192 Кбит/сек
    Каналы : 2 канала
    Расположение каналов : Front: L R
    Частота : 48, 0 КГц
    Битовая глубина : 16 бит
    Метод сжатия : С потерями
    Размер потока : 61, 9 Мбайт (11%)
    Выравнивание : Разделение по промежуткам
    Продолжительность промежутка : 40 мс. Прикольно все это наверно придумал Китай потратив достаточно времени. (1, 00 видеокадр)
    Время предзагрузки промежутка : 500 мс.


    Скриншоты для ознакомления




    Онлайн видео Чума



    Чума/Девяностые (2015) HDTVRip (серии 1-2 из 24) (обновляемая)
    загрузка...
    Рейтинг →
     (голосов: 1, оценка 4/5, голосовать можно 1 раз )

    Другие торренты по теме:

  • Чума / Девяностые (2015) HDTV [H.264 / 1080i-LQ] (серии 1-4 из 24) (обновляемая) скачать через торрент бесплатно
  • Чума / Девяностые (2015) SATRip [H.264] (серии 1-4 из 24) (обновляемая) скачать через торрент бесплатно
  • Чума / Девяностые (2015) SATRip (серии 1-22 из 24) (обновляемая) скачать через торрент бесплатно
  • Чума (Девяностые) (2015) HDTVRip [H.264 / 720p-LQ] (серии 1-24 из 24) скачать через торрент бесплатно
  • Чума (Девяностые) (2015) HDTVRip [H.264] (серии 1-24 из 24) скачать через торрент бесплатно
  • Девяностые / Чума (2015) WEBRip (серия 1-3 из 24) (обновляемая) скачать через торрент бесплатно


    • Комментарии (0):

      Информация

      Информация

        Посетители, находящиеся в группе Гости, не могут оставлять комментарии в данной новости.

        ↓ Меню




        ↓ Опрос

        Вы добавили сайт в закладки?
        Да
        Нет


        Top 10 за месяц (Фильмы)