.
Авторизация | Регистрация
Хочешь лучшие торренты? Добавь свой email!
Добавить

Торрент скачать бесплатно

» » Молодёжка (2015) SATRip (сезон 3, серии 1-4 из 40) (обновляемая) скачать через торрент бесплатно




    Молодёжка (2015) SATRip (сезон 3, серии 1-4 из 40) (обновляемая) скачать через торрент бесплатно

    Опубликовал: Админ | Дата: 28-10-2015, 16:21 | Просмотров: 84

    Производство: Россия/Арт Пикчерс Вижн
    Жанр: драма, спорт
    Режиссер: Андрей Головков
    Продюсеры: Вячеслав Муругов, Федор Бондарчук, Дмитрий Табарчук

    Актеры
    Денис Никифоров, Михаил Жигалов, Фёдор Бондарчук, Сергей Габриэлян, Владимир Зайцев, Сергей Комаров, Анатолий Лобоцкий, Ксения Лаврова-Глинка, Серафима Низовская, Валентина Ананьина и др.

    Описание

    3 сезон любимого сериала сериала Молодежка, как и предыдущий, будет полон сюрпризов и перемен: в команде появятся новые игроки и тренер-иностранец. Как сложатся его отношения с Сергеем Макеевым и кто теперь играет за Медведей, узнает тот, кто будет смотреть новый сезон любимого сериала Молодежки. Сериал, впрочем, не только о спорте, но и о любви, дружбе, выборе своего пути. Поэтому в новых сериях можно будет увидеть личностное развитие любимых персонажей и новых героев. Одни из них станут родителями, другие поймут, что настало время что-то менять, а некоторые проявят себя с неожиданной стороны.

    Продолжительность: ~00: 48: 00 серия
    Качество видео: SATRip
    Видео: XviD, 720x400 (16: 9), ~1800 Кбит/сек
    Аудио: MP3, 2 канала, 128 Кбит/сек
    Код:
    Общее
    Полное имя : F:ВидеоМолодёжка (2015) SATRipМолодёжка_04.avi
    Формат : AVI
    Формат/Информация : Audio Video Interleave
    Размер файла : 623 Мбайт
    Продолжительность : 44 м.
    Общий поток : 1946 Кбит/сек
    Программа кодирования : VirtualDubMod 1.5.10.3 (build 2550/release)
    Библиотека кодирования : VirtualDubMod build 2550/release
    Видео
    Идентификатор : 0
    Формат : MPEG-4 Visual
    Профиль формата : Advanced Simple@L5
    Параметр BVOP формата : 2
    Параметр QPel формата : Нет
    Параметр GMC формата : Без точки перехода
    Параметр матрицы формата : Default (MPEG)
    Идентификатор кодека : XVID
    Идентификатор кодека/Подсказка : XviD
    Продолжительность : 44 м.
    Битрейт : 1809 Кбит/сек
    Ширина : 720 пикселей
    Высота : 400 пикселей
    Соотношение сторон : 16:9
    Частота кадров : 25, 000 кадров/сек
    Цветовое пространство : YUV
    Субдискретизация насыщенности : 4:2:0
    Битовая глубина : 8 бит
    Тип развёртки : Прогрессивная
    Метод сжатия : С потерями
    Бит/(Пиксели*Кадры) : 0.251
    Размер потока : 579 Мбайт (93%)
    Библиотека кодирования : XviD 73
    Аудио
    Идентификатор : 1
    Формат : MPEG Audio
    Версия формата : Version 1
    Профиль формата : Layer 3
    Идентификатор кодека : 55
    Идентификатор кодека/Подсказка : MP3
    Продолжительность : 44 м.
    Вид битрейта : Постоянный
    Битрейт : 128 Кбит/сек
    Каналы : 2 канала
    Частота : 48, 0 КГц
    Метод сжатия : С потерями
    Размер потока : 40, 9 Мбайт (7%)
    Выравнивание : Соединение по промежуткам
    Продолжительность промежутка : 40 мс. (1, 00 видеокадр)
    Время предзагрузки промежутка : 504 мс.
    Библиотека кодирования : LAME3.99r
    Настройки программы : -m s -V 4 -q 2 -lowpass 17 -b 128


    Скриншоты для ознакомления




    Онлайн видео Молодёжка (2015) SATRip (сезон любимого сериала 3, серии 1



    Молодёжка (2015) SATRip (сезон 3, серии 1-4 из 40) (обновляемая)
    загрузка...
    Рейтинг →
     (голосов: 1, оценка 4/5, голосовать можно 1 раз )

    Другие торренты по теме:

  • Молодёжка (2014) SATRip (сезон 2, серия 1-2 из 40) (обновляемая) скачать через торрент бесплатно
  • Молодёжка (2016) SATRip (сезон 4, серии 1-2 из 52) (обновляемая)


    • Комментарии (0):

      Информация

      Информация

        Посетители, находящиеся в группе Гости, не могут оставлять комментарии в данной новости.

        ↓ Меню




        ↓ Опрос

        Вы добавили сайт в закладки?
        Да
        Нет


        Top 10 за месяц (Фильмы)