.
Авторизация | Регистрация
Хочешь лучшие торренты? Добавь свой email!
Добавить

Торрент скачать бесплатно

» » Хемлок Гроув / Hemlock Grove (2015) WEB-DL [H.264 / 720p-LQ] (сезон 3, серии 1 из 10) NewStudio (обновляемая) скачать через торрент бесплатно




    Хемлок Гроув / Hemlock Grove (2015) WEB-DL [H.264 / 720p-LQ] (сезон 3, серии 1 из 10) NewStudio (обновляемая) скачать через торрент бесплатно

    Опубликовал: Админ | Дата: 28-10-2015, 16:21 | Просмотров: 61

    Производство: США/Gaumont International Television, Mad Hatter Entertainment, ShineBox SMC
    Жанр: ужасы, мистика, триллер
    Режиссер: Деран Сарафян, Т.Дж. Скотт

    Актеры
    Фамке Янссен, Пенелопа Митчелл, Фрея Тингли, Лили Тейлор, Билл Скарсгард, Лэндон Либуарон, Дюгрэй Скотт, Николь Буавен, Аарон Дуглас, Лори Фортье

    Описание

    В городке Хемлок Гроув, выросшем вокруг сталелитейного завода Годфри, находят изувеченное тело девушки. О таком странном сюжете не догадывалась даже Настя Каменских. Некоторые подозревают беглеца из Белой Башни, биотехнологической лаборатории, принадлежащей бывшим владельцам завода. Другие полагают, что убийца — Питер, семнадцатилетний цыган, который рассказывает одноклассникам, что он оборотень. Третий подозреваемый — Роман (Скарсгаард), отпрыск рода Годфри. Не дожидаясь, пока власти найдут убийцу, Питер и Роман решают сами раскрыть это преступление. Им предстоит узнать немало страшных тайн о городе, в котором они живут, и о самих себе.

    Продолжительность: ~00: 57: 00 серия
    Качество видео: WEB-DL 720p
    Перевод: Многоголосый закадровый, профессиональный - NewStudio
    Видео: AVC/H.264, 1280x720, ~3 541 Kbps
    Аудио Rus: AC3, 6 ch, 384 Kbps - многоголосый закадровый
    Аудио Eng: AC3, 6 ch, 640 Kbps - оригинал
    Код:

    General
    Unique ID : 220482932463894862016913796841596842663 (0xA5DF77DB072C6223A0D4D845B740F2A7)
    Complete name : \mybooklivePublicDownloadsРаздачаHemlock.Grove.S03.720p.NewStudioHemlock.Grove.s03e01.WEB.720p.NewStudio.TV.mkv
    Format : Matroska
    Format version : Version 4/Version 2
    File size : 1.86 GiB
    Duration : 57mn 5s
    Overall bit rate : 4 658 Kbps
    Encoded date : UTC 2015-10-26 15:06:56
    Writing application : mkvmerge v8.2.0 (\'World of Adventure\') 64bit
    Writing library : libebml v1.3.1 + libmatroska v1.4.2
    DURATION : 00:51:25.930000000
    NUMBER_OF_FRAMES : 2
    NUMBER_OF_BYTES : 170
    _STATISTICS_WRITING_APP : mkvmerge v8.2.0 (\'World of Adventure\') 64bit
    _STATISTICS_WRITING_DATE_UTC : 2015-10-26 15:06:56
    _STATISTICS_TAGS : BPS DURATION NUMBER_OF_FRAMES NUMBER_OF_BYTES
    Video
    ID : 1
    Format : AVC
    Format/Info : Advanced Video Codec
    Format profile :High@L4.1
    Format settings, CABAC : Yes
    Format settings, ReFrames : 9 frames
    Codec ID : V_MPEG4/ISO/AVC
    Duration : 57mn 5s
    Bit rate : 3 541 Kbps
    Width : 1 280 pixels
    Height : 720 pixels
    Display aspect ratio : 16:9
    Frame rate mode : Constant
    Frame rate : 23.976 fps
    Color space : YUV
    Chroma subsampling : 4:2:0
    Bit depth : 8 bits
    Scan type : Progressive
    Bits/(Pixel*Frame) : 0.160
    Stream size : 1.41 GiB (76%)
    Writing library : x264 core 144 r2525 40bb568
    Encoding settings : cabac=1/ref=9/deblock=1:-3:-3/analyse=0x3:0x133/me=umh/subme=10/psy=1/psy_rd=1.00:0.00/mixed_ref=1/me_range=48/chroma_me=1/trellis=2/8x8dct=1/cqm=0/deadzone=21, 11/fast_pskip=0/chroma_qp_offset=-2/threads=12/lookahead_threads=2/sliced_threads=0/nr=0/decimate=0/interlaced=0/bluray_compat=0/constrained_intra=0/bframes=8/b_pyramid=2/b_adapt=2/b_bias=0/direct=3/weightb=1/open_gop=0/weightp=2/keyint=250/keyint_min=24/scenecut=40/intra_refresh=0/rc=crf/mbtree=0/crf=18.0/qcomp=0.70/qpmin=0/qpmax=69/qpstep=4/ip_ratio=1.40/pb_ratio=1.30/aq=3:0.65
    Language : English
    Default : Yes
    Forced : No
    DURATION : 00:57:05.130000000
    NUMBER_OF_FRAMES : 82121
    NUMBER_OF_BYTES : 1554973547
    _STATISTICS_WRITING_APP : mkvmerge v8.2.0 (\'World of Adventure\') 64bit
    _STATISTICS_WRITING_DATE_UTC : 2015-10-26 15:06:56
    _STATISTICS_TAGS : BPS DURATION NUMBER_OF_FRAMES NUMBER_OF_BYTES
    Audio #1
    ID : 2
    Format : AC-3
    Format/Info : Audio Coding 3
    Mode extension : CM (complete main)
    Format settings, Endianness : Big
    Codec ID : A_AC3
    Duration : 57mn 5s
    Bit rate mode : Constant
    Bit rate : 384 Kbps
    Channel(s) : 6 channels
    Channel positions : Front: L C R, Side: L R, LFE
    Sampling rate : 48.0 KHz
    Compression mode : Lossy
    Stream size : 157 MiB (8%)
    Language : Russian
    Default : Yes
    Forced : Yes
    Audio #2
    ID : 3
    Format : AC-3
    Format/Info : Audio Coding 3
    Mode extension : CM (complete main)
    Format settings, Endianness : Big
    Codec ID : A_AC3
    Duration : 57mn 5s
    Bit rate mode : Constant
    Bit rate : 640 Kbps
    Channel(s) : 6 channels
    Channel positions : Front: L C R, Side: L R, LFE
    Sampling rate : 48.0 KHz
    Compression mode : Lossy
    Stream size : 261 MiB (14%)
    Language : English
    Default : No
    Forced : No


    Скриншоты для ознакомления




    Онлайн видео Хемлок Гроув



    Хемлок Гроув/Hemlock Grove (2015) WEB-DL [H.264/720p-LQ] (сезон 3, серии 1 из 10) NewStudio (обновляемая)
    загрузка...
    Рейтинг →
     (голосов: 1, оценка 3/5, голосовать можно 1 раз )

    Другие торренты по теме:

  • Хемлок Гроув / Hemlock Grove (2015) WEBRip (сезон 3, серии 1 из 10) NewStudio (обновляемая) скачать через торрент бесплатно


    • Комментарии (0):

      Информация

      Информация

        Посетители, находящиеся в группе Гости, не могут оставлять комментарии в данной новости.

        ↓ Меню




        ↓ Опрос

        Вы добавили сайт в закладки?
        Да
        Нет


        Top 10 за месяц (Фильмы)