.
Авторизация | Регистрация
Хочешь лучшие торренты? Добавь свой email!
Добавить

Торрент скачать бесплатно

» » Королева красоты (2015) HDTV [H.264 / 1080i-LQ] (серии 1-3 из 12) (обновляемая) скачать через торрент бесплатно




    Королева красоты (2015) HDTV [H.264 / 1080i-LQ] (серии 1-3 из 12) (обновляемая) скачать через торрент бесплатно

    Опубликовал: Админ | Дата: 28-10-2015, 16:21 | Просмотров: 55

    Производство: Россия/Кинокомпания Киноград 21
    Жанр: мелодрама
    Режиссер: Карен Оганесян

    Актеры
    Карина Андоленко, Павел Прилучный, Анастасия Задорожная, Владимир Жеребцов, Александр Тютин, Галина Петрова, Ольга Сухарева, Елена Старостина (II), Сергей Шнырёв, Луиза Мосендз, Ксения Буравская, Валерия Кожевникова, Павел Южаков-Харланчук, Алеся Пуховая, Валерия Арланова, Ксения Дементьева и др.

    Описание

    Красота простой деревенской девушки Катерины Пановой (Карина Андоленко) покорила мир. Она стала лицом советской моды 60-х годов и первой манекенщицей, признанной на Западе. Русской красавице рукоплескали Париж и Прага, пресса называла ее национальным достоянием СССР, а дома ее ждала советская действительность, зависть, интриги, ревность и трагическая любовь… 1961 г. В небольшой подмосковной деревне живет семья Пановых. Отец Михаил ревнует жену к давнему прошлому. Поводом является его дочь-красавица Катя, которая совершенного не похожа на него, в отличие от своей сестры Любы. Катя отвергает всех местных кавалеров. Она верит, что ей уготована иная судьба. Ее заветная мечта — стать манекенщицей и отправиться в Париж.

    Дата премьеры в России: 26 октября 2015
    Продолжительность: ~00: 45: 00 серия
    Качество видео: HDTV
    Видео: AVC/H.264, 1920x1080 (16: 9), ~7800 Кбит/сек
    Аудио: MP2, 2 канала, 192 Кбит/с, CBR
    Код:

    Общее
    Идентификатор : 1 (0x1)
    Полное имя : D:МОЯtorrentKoroleva.krasoty.2015.HDTV.1080iKoroleva.krasoty.01.2015.HDTV.1080i.ts
    Формат : MPEG-TS
    Размер файла : 2, 65 Гбайт
    Продолжительность : 44 м.
    Режим общего битрейта : Переменный
    Общий поток : 8480 Кбит/сек
    Видео
    Идентификатор : 2911 (0xB5F)
    Идентификатор меню : 1009 (0x3F1)
    Формат : AVC
    Формат/Информация : Advanced Video Codec
    Профиль формата : High@L4
    Параметр CABAC формата : Да
    Параметр ReFrames формата : 4 кадра
    Идентификатор кодека : 27
    Продолжительность : 44 м.
    Битрейт : 7867 Кбит/сек
    Ширина : 1920 пикселей
    Высота : 1080 пикселей
    Соотношение сторон : 16:9
    Частота кадров : 25, 000 кадров/сек
    Цветовое пространство : YUV
    Субдискретизация насыщенности : 4:2:0
    Битовая глубина : 8 бит
    Тип развёртки : MBAFF
    Порядок развёртки : Верхнее поле первое
    Бит/(Пиксели*Кадры) : 0.152
    Размер потока : 2, 45 Гбайт (93%)
    Аудио
    Идентификатор : 2912 (0xB60)
    Идентификатор меню : 1009 (0x3F1)
    Формат : MPEG Audio
    Версия формата : Version 1
    Профиль формата : Layer 2
    Идентификатор кодека : 3
    Продолжительность : 44 м.
    Вид битрейта : Постоянный
    Битрейт : 192 Кбит/сек
    Каналы : 2 канала
    Частота : 48, 0 КГц
    Метод сжатия : С потерями
    Размер потока : 61, 3 Мбайт (2%)
    Язык : Russian



    Скриншоты для ознакомления




    Онлайн видео Королева красоты (2015) HDTV [H.264



    Королева красоты (2015) HDTV [H.264/1080i-LQ] (серии 1-3 из 12) (обновляемая)
    загрузка...
    Рейтинг →
     (голосов: 1, оценка 4/5, голосовать можно 1 раз )

    Другие торренты по теме:

  • Королева красоты (2015) HDTVRip (серия 1-3 из 12) (обновляемая) скачать через торрент бесплатно
  • Королева красоты (2015) SATRip (серии 1-5 из 12) (обновляемая) скачать через торрент бесплатно


    • Комментарии (0):

      Информация

      Информация

        Посетители, находящиеся в группе Гости, не могут оставлять комментарии в данной новости.

        ↓ Меню




        ↓ Опрос

        Вы добавили сайт в закладки?
        Да
        Нет


        Top 10 за месяц (Фильмы)