.
Авторизация | Регистрация
Хочешь лучшие торренты? Добавь свой email!
Добавить

Торрент скачать бесплатно

» » Квест (2015) WEB-DLRip (сезон 1, серии 1-2 из 16) (обновляемая) скачать через торрент бесплатно




    Квест (2015) WEB-DLRip (сезон 1, серии 1-2 из 16) (обновляемая) скачать через торрент бесплатно

    Опубликовал: Админ | Дата: 28-10-2015, 16:21 | Просмотров: 51

    Производство: Россия/СТС
    Жанр: приключения, триллер
    Режиссер: Андрей Загидуллин, Александр Данилов
    Продюсеры: Павел Прилучный, Агата Муцениеце, Марина Петренко, Илья Иосифов, Михаил Евланов, Петр Рыков, Алексей Франдетти, Виктория Корлякова, Роман Волобуев и др.

    Описание

    Они не знали друг друга до того дня, пока в одном московском клубе их не отравили неизвестным ядом. И теперь тем из них, кто не умер на месте, а получил отложенную на 72 часа смерть, предстоит выполнить несколько заданий загадочного кукловода, который единственный в мире имеет антидот. Если задания будут выполнены, то наградой для выживших станет противоядие. В роли карты острова сокровищ — мистическое, полное сюрпризов наследие Якова Брюса — сподвижника Петра I, слывшего в народе колдуном и чернокнижником. Однако чтобы завладеть этим наследием, героям предстоит пройти вполне реальные испытания, которые некоторым из них будут стоить жизни. Опасный квест с первых же минут оправдывает себя — герои погружаются в мир тайн прошлого, о котором мало кто знает из современников. Одна загадка переплетается с другой, современная жизнь перемешивается с прошлым. Оказывается, в Москве полно странных загадок и тайн, которым позавидовал бы сам профессор Роберт Лэнгдон из Кода да Винчи.

    Дата российской премьеры: 23 октября 2015
    Продолжительность: ~ 00: 45: 00 серия
    Качество видео: WEB-DLRip
    Видео: XviD, 704x400 (16: 9), ~ 1800 Кбит/сек, 25 кадр/с
    Аудио: MP3, 2 канала, 128 Кбит/сек
    Код:
    General
    Complete name : Kvest.s01.e01.WEB-DLRip.avi
    Format : AVI
    Format/Info : Audio Video Interleave
    File size : 601 MiB
    Duration : 43mn 12s
    Overall bit rate : 1 943 Kbps
    Writing application : VirtualDubMod 1.5.10.3 |www.virtualdub-fr.org|| (build 2550/release)
    Writing library : VirtualDubMod build 2550/release
    Video
    ID : 0
    Format : MPEG-4 Visual
    Format profile : Advanced Simple@L5
    Format settings, BVOP : 1
    Format settings, QPel : No
    Format settings, GMC : No warppoints
    Format settings, Matrix : Custom
    Codec ID : XVID
    Codec ID/Hint : XviD
    Duration : 43mn 12s
    Bit rate : 1 805 Kbps
    Width : 704 pixels
    Height : 400 pixels
    Display aspect ratio : 16:9
    Frame rate : 25.000 fps
    Color space : YUV
    Chroma subsampling : 4:2:0
    Bit depth : 8 bits
    Scan type : Progressive
    Compression mode : Lossy
    Bits/(Pixel*Frame) : 0.256
    Stream size : 558 MiB (93%)
    Writing library : XviD 73
    Audio
    ID : 1
    Format : MPEG Audio
    Format version : Version 1
    Format profile : Layer 3
    Codec ID : 55
    Codec ID/Hint : MP3
    Duration : 43mn 12s
    Bit rate mode : Constant
    Bit rate : 128 Kbps
    Channel(s) : 2 channels
    Sampling rate : 48.0 KHz
    Compression mode : Lossy
    Stream size : 39.6 MiB (7%)
    Alignment : Aligned on interleaves
    Interleave, duration : 40 ms (1.00 video frame)
    Interleave, preload duration : 504 ms
    Writing library : LAME3.99r
    Encoding settings : -m s -V 4 -q 2 -lowpass 17 -b 128
    Автор рипа - ivandubskoj


    Скриншоты для ознакомления




    Онлайн видео Квест (2015) WEB



    Квест (2015) WEB-DLRip (сезон 1, серии 1-2 из 16) (обновляемая)
    загрузка...
    Рейтинг →
     (голосов: 1, оценка 4/5, голосовать можно 1 раз )

    Другие торренты по теме:

  • Том и Джерри: Шпион Квест / Tom and Jerry: Spy Quest (2015) WEB-DLRip скачать через торрент бесплатно
  • Том и Джерри: Шпион Квест / Tom and Jerry: Spy Quest (2015) WEB-DLRip скачать через торрент бесплатно
  • Том и Джерри: Шпион Квест / Tom and Jerry: Spy Quest (2015) WEB-DLRip [H.264] скачать через торрент бесплатно


    • Комментарии (0):

      Информация

      Информация

        Посетители, находящиеся в группе Гости, не могут оставлять комментарии в данной новости.

        ↓ Меню




        ↓ Опрос

        Вы добавили сайт в закладки?
        Да
        Нет


        Top 10 за месяц (Фильмы)