.
Авторизация | Регистрация
Хочешь лучшие торренты? Добавь свой email!
Добавить

Торрент скачать бесплатно

» » Тюремный рок / Jailhouse Rock (1957) DVDRip [цветная версия] скачать через торрент бесплатно




    Тюремный рок / Jailhouse Rock (1957) DVDRip [цветная версия] скачать через торрент бесплатно

    Опубликовал: Админ | Дата: 28-10-2015, 16:21 | Просмотров: 80

    Производство: США, Metro-Goldwyn-Mayer
    Жанр: Мелодрама, Музыкальный, Криминал
    Режиссер: Ричард Торп

    Актеры
    Элвис Пресли, Джуди Тайлер, Мики Шонесси, Вон Тейлор, Дженнифер Холден, Дин Джонс, Anne Neyland, Дороти Эбботт, Питер Адамс, Франсуа Андре

    Описание

    Элвис написал практически автобиографию своего взлета, подробно показав те вехи, которые привели его на вершину успеха. Жил был парень. Работал он на стройке. Как-то в баре он подрался и убил человека. Тюрьма. Вилами по воде писано, сказал кто то из толпы, к чему не понятно. В тюрьме он сидит в камере со звездой кантри, который сел за ограбление. Звезда кантри замечает у юного Элвиса талант и начинает его обучать. После освобождения Элвис ищет работу певцом, но ему не везет. Но его замечает прелестная девушка, которая работала в музыкальном бизнесе. Много трудностей Элвису приходится пройти, прежде чем он добивается успеха. Элвис с крайней самоиронией и сарказмом описал звездную болезнь у молодых исполнителей.

    Продолжительность: 01: 36: 32
    Качество видео: DVDRip
    Перевод: Многоголосый закадровый
    Видео: Xvid, 720x480 (3: 2), ~1870 kbps, 25 fps
    Аудио: AC3, 2 ch, 192 kbps, 48 kHz, CBR
    Код:

    General
    Complete name : G:Download_GJailhouse_Rock_colorized.avi
    Format : AVI
    Format/Info : Audio Video Interleave
    File size : 1.40 GiB
    Duration : 1h 36mn
    Overall bit rate : 2 069 Kbps
    Video
    ID : 0
    Format : MPEG-4 Visual
    Format profile : Advanced Simple@L4
    Format settings, BVOP : No
    Format settings, QPel : No
    Format settings, GMC : No warppoints
    Format settings, Matrix : Default (H.263)
    Codec ID : XVID
    Codec ID/Hint : XviD
    Duration : 1h 36mn
    Bit rate : 1 870 Kbps
    Width : 720 pixels
    Height : 480 pixels
    Display aspect ratio : 3:2
    Frame rate : 25.000 fps
    Color space : YUV
    Chroma subsampling : 4:2:0
    Bit depth : 8 bits
    Scan type : Progressive
    Compression mode : Lossy
    Bits/(Pixel*Frame) : 0.216
    Stream size : 1.26 GiB (90%)
    Audio
    ID : 1
    Format : AC-3
    Format/Info : Audio Coding 3
    Mode extension : CM (complete main)
    Format settings, Endianness : Big
    Codec ID : 2000
    Duration : 1h 36mn
    Bit rate mode : Constant
    Bit rate : 192 Kbps
    Channel(s) : 2 channels
    Channel positions : Front: L R
    Sampling rate : 48.0 KHz
    Compression mode : Lossy
    Delay relative to video : 4ms
    Stream size : 133 MiB (9%)
    Alignment : Split accross interleaves
    Interleave, duration : 84 ms (2.10 video frames)


    Скриншоты для ознакомления




    Онлайн видео Тюремный рок



    Тюремный рок/Jailhouse Rock (1957) DVDRip [цветная версия]
    загрузка...
    Рейтинг →
     (голосов: 1, оценка 5/5, голосовать можно 1 раз )

    Другие торренты по теме:

  • Тюремный рок / Jailhouse Rock (1957) BDRip [H.264 / 720p] [hand made colored] скачать через торрент бесплатно


    • Комментарии (0):

      Информация

      Информация

        Посетители, находящиеся в группе Гости, не могут оставлять комментарии в данной новости.

        ↓ Меню




        ↓ Опрос

        Вы добавили сайт в закладки?
        Да
        Нет


        Top 10 за месяц (Фильмы)