.
Авторизация | Регистрация
Хочешь лучшие торренты? Добавь свой email!
Добавить

Торрент скачать бесплатно

» » Метод (2015) WEB-DL [H.264 / 720p-LQ] (серии 1-4 из 16) (обновляемая) скачать через торрент бесплатно




    Метод (2015) WEB-DL [H.264 / 720p-LQ] (серии 1-4 из 16) (обновляемая) скачать через торрент бесплатно

    Опубликовал: Админ | Дата: 26-10-2015, 04:00 | Просмотров: 1039

    Производство: Россия/Первый канал
    Жанр: триллер, криминал, драма
    Режиссер: Юрий Быков

    Актеры
    Константин Хабенский, Паулина Андреева, Виталий Кищенко, Александр Цекало, Екатерина Дубакина, Александр Петров (II), Тимофей Трибунцев, Игорь Савочкин, Алексей Серебряков, Юрий Колокольников, Юрий Быков, Ян Цапник, Захар Кабанов и др.

    Описание

    Главная героиня Есеня хочет после окончания института работать с Родионом Меглиным — загадочным, скрытным, следователем-одиночкой с невероятной раскрываемостью дел разнообразных маньяков. Каков его метод, никто не знает. Есеня, попав к нему в стажеры, начинает понимать, что суть метода в том, что Меглин сам — маньяк. Он ИХ чувствует. Ему разрешено ликвидировать одних, другим сохранять жизнь и присматривать за ними. Любовь, которой не суждено случиться, на фоне ужасающих преступлений самых страшных маньяков последних десятилетий в нашей стране.

    Дата премьеры в РФ: 18 октября 2015
    Продолжительность: ~ 00: 50: 00 серия
    Качество видео: WEB-DL
    Видео: AVC/H.264, 1280x720 (16: 9), 25.000 fps, 2 740 Kbps (0.119 bit/pixel)
    Аудио: AC-3, 48.0 KHz, 2 ch, 192 Kbps, CBR
    Код:
    Формат : Matroska
    Версия формата : Version 2
    Размер файла : 1, 06 Гбайт
    Продолжительность : 50 м.
    Общий поток : 2993 Кбит/сек
    Дата кодирования : UTC 2015-10-25 04:22:35
    Программа кодирования : mkvmerge v5.8.0 (\'No Sleep/Pillow\') built on Sep 2 2012 15:37:04
    Библиотека кодирования : libebml v1.2.3 + libmatroska v1.3.0
    Видео
    Идентификатор : 1
    Формат : AVC
    Формат/Информация : Advanced Video Codec
    Профиль формата :High@L4.1
    Параметр CABAC формата : Да
    Параметр ReFrames формата : 5 кадров
    Идентификатор кодека : V_MPEG4/ISO/AVC
    Продолжительность : 50 м.
    Битрейт : 2741 Кбит/сек
    Ширина : 1280 пикселей
    Высота : 720 пикселей
    Соотношение сторон : 16:9
    Режим частоты кадров : Постоянный
    Частота кадров : 25, 000 кадров/сек
    Цветовое пространство : YUV
    Субдискретизация насыщенности : 4:2:0
    Битовая глубина : 8 бит
    Тип развёртки : Прогрессивная
    Бит/(Пиксели*Кадры) : 0.119
    Размер потока : 996 Мбайт (92%)
    Язык : Russian
    Default : Да
    Forced : Да
    Аудио
    Идентификатор : 2
    Формат : AC-3
    Формат/Информация : Audio Coding 3
    Расширение режима : CM (complete main)
    Параметр Endianness формата : Big
    Идентификатор кодека : A_AC3
    Продолжительность : 50 м.
    Вид битрейта : Постоянный
    Битрейт : 192 Кбит/сек
    Каналы : 2 канала
    Расположение каналов : Front: L R
    Частота : 48, 0 КГц
    Битовая глубина : 16 бит
    Метод сжатия : С потерями
    Размер потока : 69, 8 Мбайт (6%)
    Язык : Russian
    Default : Да
    Forced : Да


    Скриншоты для ознакомления




    Онлайн видео Метод (2015) WEB-DL [H.264



    Метод (2015) WEB-DL [H.264/720p-LQ] (серии 1-4 из 16) (обновляемая)
    загрузка...
    Рейтинг →
     (голосов: 1, оценка 5/5, голосовать можно 1 раз )

    Другие торренты по теме:

  • Метод Фрейда (2015) WEB-DL [H.264 / 1080p-LQ] (сезон 2, серии 1-4 из 12) (обновляемая)
  • Метод Фрейда (2015) WEB-DL [H.264 / 720p-LQ] (сезон 2, серии 1-12 из 12)


    • Комментарии (0):

      Информация

      Информация

        Посетители, находящиеся в группе Гости, не могут оставлять комментарии в данной новости.

        ↓ Меню




        ↓ Опрос

        Вы добавили сайт в закладки?
        Да
        Нет


        Top 10 за месяц (Фильмы)