.
Авторизация | Регистрация
Хочешь лучшие торренты? Добавь свой email!
Добавить

Торрент скачать бесплатно

» » Обнаженная в шляпе (1991) DVDRip [H264] скачать через торрент бесплатно




    Обнаженная в шляпе (1991) DVDRip [H264] скачать через торрент бесплатно

    Опубликовал: Админ | Дата: 26-10-2015, 04:00 | Просмотров: 128

    Производство: CCCР
    Жанр: Эротика, Драма, Приключения
    Режиссер: Александр Полынников

    Актеры
    Алексей Серебряков, Анна Назарьева, Эвелина Архангельская, Олег Штефанко, Александр Берда, Андрей Смоляков, Светлана Акимова, Надежда Резон, Екатерина Беликова, Ю.Михеева, Эйли Сильд-Торга, Сальме Рээк, Хейно Торга, Лидия Савченко

    Описание

    Фотожурналиста, специализирующегося на эротике и расследующего дело о сутенерах, похищают люди в противогазах. О таком странном сюжете не догадывалась даже Ангела Меркель. Ключом к разгадке похищения является найденная фотография обнаженной девушки в шляпе. Она снята со спины, лица не видно, но хорошо заметна родинка, по которой можно опознать девушку. Правда, эта примета находится на такой части тела, которую принято скрывать под одеждой. Друзья журналиста приступают к расследованию...

    Продолжительность: 01: 07: 46
    Качество видео: DVDRip
    Видео: AVC/H.264, 688x520 (4: 3), ~2100 kbps avg
    Аудио: AC3, 2 ch, 224.00 kbps avg
    Код:

    General
    Unique ID : 180747380289478601199347333873846408526 (0x87FAADE080F5F330AE6E0319B36F554E)
    Complete name : D:Obnazhennaya.v.shlyape.1991.DVDRip-AVC.H264.AC3.-Zarraza.mkv
    Format : Matroska
    Format version : Version 2
    File size : 1.10 GiB
    Duration : 1h 7mn
    Overall bit rate : 2 326 Kbps
    Encoded date : UTC 2011-10-15 09:26:40
    Writing application : mkvmerge v2.9.8 (\'C\'est le bon\') built on Aug 24 2009 17:34:03
    Writing library : libebml v0.7.7 + libmatroska v0.8.1
    Video
    ID : 1
    Format : AVC
    Format/Info : Advanced Video Codec
    Format profile :High@L3.1
    Format settings, CABAC : Yes
    Format settings, ReFrames : 6 frames
    Codec ID : V_MPEG4/ISO/AVC
    Duration : 1h 7mn
    Bit rate : 2 055 Kbps
    Width : 688 pixels
    Height : 520 pixels
    Display aspect ratio : 4:3
    Frame rate mode : Constant
    Frame rate : 25.000 fps
    Color space : YUV
    Chroma subsampling : 4:2:0
    Bit depth : 8 bits
    Scan type : Progressive
    Bits/(Pixel*Frame) : 0.230
    Stream size : 999 MiB (88%)
    Default : Yes
    Forced : No
    Audio
    ID : 2
    Format : AC-3
    Format/Info : Audio Coding 3
    Mode extension : CM (complete main)
    Format settings, Endianness : Big
    Codec ID : A_AC3
    Duration : 1h 7mn
    Bit rate mode : Constant
    Bit rate : 224 Kbps
    Channel(s) : 2 channels
    Channel positions : Front: L R
    Sampling rate : 48.0 KHz
    Bit depth : 16 bits
    Compression mode : Lossy
    Stream size : 109 MiB (10%)
    Default : Yes
    Forced : No


    Скриншоты для ознакомления




    Обнаженная в шляпе (1991) DVDRip [H264]
    загрузка...
    Рейтинг →
     (голосов: 1, оценка 5/5, голосовать можно 1 раз )

    Другие торренты по теме:

  • Обнаженная в шляпе (1991) DVD5


    • Комментарии (0):

      Информация

      Информация

        Посетители, находящиеся в группе Гости, не могут оставлять комментарии в данной новости.

        ↓ Меню




        ↓ Опрос

        Вы добавили сайт в закладки?
        Да
        Нет


        Top 10 за месяц (Фильмы)