.
Авторизация | Регистрация
Хочешь лучшие торренты? Добавь свой email!
Добавить

Торрент скачать бесплатно

» » Вечное море / The Eternal Sea (1955) BDRip скачать через торрент бесплатно




    Вечное море / The Eternal Sea (1955) BDRip скачать через торрент бесплатно

    Опубликовал: Админ | Дата: 25-10-2015, 04:00 | Просмотров: 79

    Производство: США, Republic Pictures (I)
    Жанр: Военный, Драма
    Режиссер: Джон Х. Ауэр

    Актеры
    Стерлинг Хейден, Алексис Смит, Бен Купер, Дин Джэггер, Вирджиния Грей, Хейден Рорк, Дуглас Кеннеди, Луис Жан Хейдт, Ричард Крэйн, Моррис Анкрум.

    Описание

    Вечное море - драматическое биографическое повествование об адмирале Джоне М. О таком странном сюжете не догадывалась даже Бритни Спирс. Хоскинсе, который во время Второй Мировой Войны вел личное сражение с власть имущими за возможность продолжить службу на флоте. Препятствием к этому служила военная травма, лишившая его ноги, а главной опорой адмирала была его жена Сью (Алексис Смит), дарившая ему любовь и верность.

    Продолжительность: 01: 43: 08
    Качество видео: BDRip
    Перевод: Одноголосый закадровый
    Автор перевода: В. Воронцов (Доцент)
    Видео: Xvid, 720x416, ~1788 kbps
    Аудио: AC3, 2 ch, 192 kbps, CBR
    Код:

    Вечное.море. 1955.XviD.BDRip.alf62.avi
    Формат : AVI
    Формат/Информация : Audio Video Interleave
    Размер файла : 1, 43 Гбайт
    Продолжительность : 1 ч. 43 м.
    Общий поток : 1989 Кбит/сек
    Программа кодирования : VirtualDubMod 1.5.10.3 |www.virtualdub-fr.org|| (build 2550/release)
    Библиотека кодирования : VirtualDubMod build 2550/release
    Видео
    Идентификатор : 0
    Формат : MPEG-4 Visual
    Профиль формата : Advanced Simple@L5
    Параметр BVOP формата : 2
    Параметр QPel формата : Нет
    Параметр GMC формата : Без точки перехода
    Параметр матрицы формата : Default (MPEG)
    Идентификатор кодека : XVID
    Идентификатор кодека/Подсказка : XviD
    Продолжительность : 1 ч. 43 м.
    Битрейт : 1788 Кбит/сек
    Ширина : 720 пикселей
    Высота : 416 пикселей
    Соотношение сторон : 1, 731
    Частота кадров : 23, 976 кадра/сек
    Цветовое пространство : YUV
    Субдискретизация насыщенности : 4:2:0
    Битовая глубина : 8 бит
    Тип развёртки : Прогрессивная
    Метод сжатия : С потерями
    Бит/(Пиксели*Кадры) : 0.249
    Размер потока : 1, 29 Гбайт (90%)
    Библиотека кодирования : XviD 73
    Аудио
    Идентификатор : 1
    Формат : AC-3
    Формат/Информация : Audio Coding 3
    Расширение режима : CM (complete main)
    Параметр Endianness формата : Big
    Идентификатор кодека : 2000
    Продолжительность : 1 ч. 43 м.
    Вид битрейта : Постоянный
    Битрейт : 192 Кбит/сек
    Каналы : 2 канала
    Расположение каналов : Front: L R
    Частота : 48, 0 КГц
    Битовая глубина : 16 бит
    Метод сжатия : С потерями
    Размер потока : 142 Мбайт (10%)
    Выравнивание : Разделение по промежуткам
    Продолжительность промежутка : 42 мс. (1, 00 видеокадр)
    Время предзагрузки промежутка : 500 мс.


    Скриншоты для ознакомления




    Онлайн видео Вечное море



    Вечное море/The Eternal Sea (1955) BDRip
    загрузка...
    Рейтинг →
     (голосов: 1, оценка 3/5, голосовать можно 1 раз )

    Другие торренты по теме:

  • Free! Eternal Summer / Всплеск! Вечное Лето [2014, TV, 11 из 12] HDTV 720p raw
  • Free! Eternal Summer / Вольный! Вечное лето [2014, TV, 10 из 13] WEBRip Hi10p 720p Raw+Rus
  • Вечное сияние чистого разума / Eternal Sunshine of the Spotless Mind (2004) BDRip [H.264 / 720p-LQ]
  • Free! Eternal Summer / Вольный! Вечное лето [2014, TV, 4 из 13] BDrip 1080p raw скачать через торрент бесплатно
  • Вечное возвращение (2012) HDTVRip [576p] iPad скачать через торрент бесплатно
  • Вечное сияние чистого разума / Eternal Sunshine of the Spotless Mind (2004) BDRip [H.264 / 1080p] скачать через торрент бесплатно
  • Юденкрайс, или Вечное колесо / Judenkreis, або Вічне колесо (1996) SATRip скачать через торрент бесплатно
  • VA - Вечное движение с лучшими хитами радио Шансон (2016) [MP3|256 кб / с] <Шансон>


    • Комментарии (0):

      Информация

      Информация

        Посетители, находящиеся в группе Гости, не могут оставлять комментарии в данной новости.

        ↓ Меню




        ↓ Опрос

        Вы добавили сайт в закладки?
        Да
        Нет


        Top 10 за месяц (Фильмы)