.
Авторизация | Регистрация
Хочешь лучшие торренты? Добавь свой email!
Добавить

Торрент скачать бесплатно

» » Бомбардир / Bombardier (1943) DVDRip скачать через торрент бесплатно




    Бомбардир / Bombardier (1943) DVDRip скачать через торрент бесплатно

    Опубликовал: Админ | Дата: 25-10-2015, 04:00 | Просмотров: 122

    Производство: США
    Жанр: Военный, драма
    Режиссер: Ричард Уоллес, Ламберт Хилльер

    Актеры
    Юджин Л. Юбэнк, Пэт О’Брайен, Рэндольф Скотт, Энн Ширли, Эдди Альберт, Уолтер Рид, Роберт Райан, Бартон МакЛэйн, Леонард Стронг, Ричард Мартин.

    Описание

    Майор Чик Дэвис демонстрирует армии США достоинства высотного прицельного бомбометания, с помощью нового высокотехнологичного прицела, а так же организовывает школу бомбардиров. Тренировки показаны в полудокументальном стиле, скрашенном драматическими моментами из личной жизни и учебных будней курсантов. Фильм завершается настоящим боевым вылетом в Нагою (Япония), в ответ на нападение на Перл-Харбор.

    Продолжительность: 01: 39: 17
    Качество видео: DVDRip
    Перевод: Одноголосый закадровый
    Автор перевода: den904 по субтитрамlobo
    Видео: Xvid, 640x480, ~1888 kbps
    Аудио: AC3, 2 ch, 192 Kbps
    Код:

    Бомбардир.1943.XviD.DVD.Rip.alf62.avi
    Формат : AVI
    Формат/Информация : Audio Video Interleave
    Размер файла : 1, 45 Гбайт
    Продолжительность : 1 ч. 39 м.
    Общий поток : 2089 Кбит/сек
    Программа кодирования : VirtualDubMod 1.5.10.3 |www.virtualdub-fr.org|| (build 2550/release)
    Библиотека кодирования : VirtualDubMod build 2550/release
    Видео
    Идентификатор : 0
    Формат : MPEG-4 Visual
    Профиль формата : Advanced Simple@L5
    Параметр BVOP формата : 2
    Параметр QPel формата : Нет
    Параметр GMC формата : Без точки перехода
    Параметр матрицы формата : Default (MPEG)
    Идентификатор кодека : XVID
    Идентификатор кодека/Подсказка : XviD
    Продолжительность : 1 ч. 39 м.
    Битрейт : 1888 Кбит/сек
    Ширина : 640 пикселей
    Высота : 480 пикселей
    Соотношение сторон : 4:3
    Частота кадров : 23, 976 кадра/сек
    Цветовое пространство : YUV
    Субдискретизация насыщенности : 4:2:0
    Битовая глубина : 8 бит
    Тип развёртки : Прогрессивная
    Метод сжатия : С потерями
    Бит/(Пиксели*Кадры) : 0.256
    Размер потока : 1, 31 Гбайт (90%)
    Библиотека кодирования : XviD 73
    Аудио
    Идентификатор : 1
    Формат : AC-3
    Формат/Информация : Audio Coding 3
    Расширение режима : CM (complete main)
    Параметр Endianness формата : Big
    Идентификатор кодека : 2000
    Продолжительность : 1 ч. 39 м.
    Вид битрейта : Постоянный
    Битрейт : 192 Кбит/сек
    Каналы : 2 канала
    Расположение каналов : Front: L R
    Частота : 48, 0 КГц
    Битовая глубина : 16 бит
    Метод сжатия : С потерями
    Размер потока : 136 Мбайт (9%)
    Выравнивание : Разделение по промежуткам
    Продолжительность промежутка : 42 мс. (1, 00 видеокадр)
    Время предзагрузки промежутка : 500 мс.


    Скриншоты для ознакомления




    Онлайн видео Бомбардир



    Бомбардир/Bombardier (1943) DVDRip
    загрузка...
    Рейтинг →
     (голосов: 1, оценка 4/5, голосовать можно 1 раз )

    Другие торренты по теме:

  • Hungry Heart: Wild Striker / Неистовый бомбардир [2002, TV, 52 эп.] DVDRip 480p 10bit Raw


    • Комментарии (0):

      Информация

      Информация

        Посетители, находящиеся в группе Гости, не могут оставлять комментарии в данной новости.

        ↓ Меню




        ↓ Опрос

        Вы добавили сайт в закладки?
        Да
        Нет


        Top 10 за месяц (Фильмы)