.
Авторизация | Регистрация
Хочешь лучшие торренты? Добавь свой email!
Добавить

Торрент скачать бесплатно

» » Манхэттен / Manhattan (2015) WEB-DLRip (сезон 2, серии 1 из 10) BaibaKo (обновляемая) скачать через торрент бесплатно




    Манхэттен / Manhattan (2015) WEB-DLRip (сезон 2, серии 1 из 10) BaibaKo (обновляемая) скачать через торрент бесплатно

    Опубликовал: Админ | Дата: 23-10-2015, 04:01 | Просмотров: 854

    Производство: США/Lionsgate Television, Shoe Money Productions, Skydance Productions
    Жанр: драма
    Режиссер: Томас Шламми, Дэниэл Эттиэс, Пэрис Барклай

    Актеры
    Рэйчел Броснахэн, Майкл Чернус, Кристофер Денэм, Катя Херберс, Джон Бенжамин Хикки, Гарри Ллойд, Оливия Уильямс, Эшли Цукерман, Алексия Фаст, Дэниел Стерн и др.

    Описание

    Действие драматического сериала начинается во время Второй мировой войны, в начале 1940-х годов прошлого века. Американское правительство создает особую программу по разработке ядерного оружия — Проект „Манхэттен“. Богатый выбор, сказал кто то из толпы, к чему не понятно. К работе привлекаются самые опытные ученые разных специальностей, которых вербуют и переправляют в пустыню Нью-Мексико, в Лос-Аламос. Возглавляет сложную и опасную работу лаборатории профессор Фрэнк Уинтер (Джон Бенджамин Хикки). Участникам проекта каждый день приходится идти на сделку со своей совестью, выбирая между моральными ценностями и долгом, скрывая правду о своей работе от самых близких людей... Сериал Манхэттен основан на реальных событиях.

    Продолжительность: ~00: 55: 00 серия
    Качество видео: WEB-DLRip
    Перевод: Многоголосый закадровый, профессиональный -BaibaKo
    Автор перевода: vipere
    Озвучка: Анастасия Флигина, Елена Григорьева, Дмитрий Глебов, Виталий Ткаченко и Дмитрий Нежельский
    Видео: XviD, 720x400 (16: 9), ~1500 kb/s
    Аудио Rus: MPEG Layer 3, 48, 0 kHz, 2 ch, 192 kb/s — многоголосый закадровый
    Аудио Eng: MPEG Layer 3, 48, 0 kHz, 2 ch, 192 kb/s — оригинал
    Общее
    Полное имя : D: Манхэттен (сезон любимого сериала 2) Manhattan (2015) WEB-DLRip - BaibaKoManhattan.s02e01.WEB-DLRip.XviD.Rus.Eng.BaibaKo.tv.avi
    Формат : AVI
    Формат/Информация : Audio Video Interleave
    Размер файла : 748 Мбайт
    Продолжительность : 55 м.
    Общий поток : 1897 Кбит/сек
    Программа кодирования : VirtualDubMod 1.5.10.2 (build 2542/release)
    Библиотека кодирования : VirtualDubMod build 2542/release
    Видео
    Идентификатор : 0
    Формат : MPEG-4 Visual
    Профиль формата : Advanced Simple@L5
    Параметр BVOP формата : 2
    Параметр QPel формата : Нет
    Параметр GMC формата : Без точки перехода
    Параметр матрицы формата : Default (H.263)
    Идентификатор кодека : XVID
    Идентификатор кодека/Подсказка : XviD
    Продолжительность : 55 м.
    Битрейт : 1499 Кбит/сек
    Ширина : 720 пикселей
    Высота : 400 пикселей
    Соотношение сторон : 16: 9
    Частота кадров : 23, 976 кадра/сек
    Цветовое пространство : YUV
    Субдискретизация насыщенности : 4: 2: 0
    Битовая глубина : 8 бит
    Тип развёртки : Прогрессивная
    Метод сжатия : С потерями
    Бит/(Пиксели*Кадры) : 0.217
    Размер потока : 591 Мбайт (79%)
    Библиотека кодирования : XviD 65
    Аудио #1
    Идентификатор : 1
    Формат : MPEG Audio
    Версия формата : Version 1
    Профиль формата : Layer 3
    Режим : Joint stereo
    Расширение режима : MS Stereo
    Идентификатор кодека : 55
    Идентификатор кодека/Подсказка : MP3
    Продолжительность : 55 м.
    Вид битрейта : Постоянный
    Битрейт : 192 Кбит/сек
    Каналы : 2 канала
    Частота : 48, 0 КГц
    Метод сжатия : С потерями
    Размер потока : 75, 7 Мбайт (10%)
    Выравнивание : Соединение по промежуткам
    Продолжительность промежутка : 42 мс. Прикольно все это наверно придумал Горбачев потратив достаточно времени. (1, 00 видеокадр)
    Время предзагрузки промежутка : 504 мс.
    Библиотека кодирования : LAMEЄЄЂ@
    Аудио #2
    Идентификатор : 2
    Формат : MPEG Audio
    Версия формата : Version 1
    Профиль формата : Layer 3
    Режим : Joint stereo
    Расширение режима : MS Stereo
    Идентификатор кодека : 55
    Идентификатор кодека/Подсказка : MP3
    Продолжительность : 55 м.
    Вид битрейта : Постоянный
    Битрейт : 192 Кбит/сек
    Каналы : 2 канала
    Частота : 48, 0 КГц
    Метод сжатия : С потерями
    Размер потока : 75, 7 Мбайт (10%)
    Выравнивание : Соединение по промежуткам
    Продолжительность промежутка : 42 мс. (1, 00 видеокадр)
    Время предзагрузки промежутка : 504 мс.


    Скриншоты для ознакомления




    Онлайн видео Манхэттен



    Манхэттен/Manhattan (2015) WEB-DLRip (сезон 2, серии 1 из 10) BaibaKo (обновляемая)
    загрузка...
    Рейтинг →
     (голосов: 1, оценка 4/5, голосовать можно 1 раз )

    Другие торренты по теме:

  • Манхэттен / Manhattan (2014) WEB-DLRip (Сезон 1, серия 01-07 из 13) (BaibaKo) (обновляемая)
  • Манхэттен / Manhattan (2014) WEB-DL [H.264 / 720p-LQ] (Сезон 1, Серии 1-7 из 13) BaibaKo (обновляемая)
  • Манхэттен / Manhattan (2014) WEB-DL [H.264 / 720p-LQ] (сезон 1, серии 1-13 из 13) (BaibaKo)
  • Манхэттен / Manhattan (2015) WEB-DL [H.264 / 720p-LQ] (сезон 2, серии 1-3 из 10) BaibaKo (обновляемая) скачать через торрент бесплатно
  • Пятница 13 – Часть 8: Джейсон штурмует Манхэттен / Friday the 13th Part VIII: Jason Takes Manhattan (1989) BDRemux [1080p]


    • Комментарии (0):

      Информация

      Информация

        Посетители, находящиеся в группе Гости, не могут оставлять комментарии в данной новости.

        ↓ Меню




        ↓ Опрос

        Вы добавили сайт в закладки?
        Да
        Нет


        Top 10 за месяц (Фильмы)