.
Авторизация | Регистрация
Хочешь лучшие торренты? Добавь свой email!
Добавить

Торрент скачать бесплатно

» » Больница Никербокер / Больница Ник / The Knick (2015) HDTV [H.264 / 720p-LQ] (сезон 2, серии 1 из 10) NewStudio (обновляемая) скачать через торрент бесплатно




    Больница Никербокер / Больница Ник / The Knick (2015) HDTV [H.264 / 720p-LQ] (сезон 2, серии 1 из 10) NewStudio (обновляемая) скачать через торрент бесплатно

    Опубликовал: Админ | Дата: 23-10-2015, 04:01 | Просмотров: 115

    Производство: США
    Жанр: драма
    Режиссер: Стивен Содерберг

    Актеры
    Клайв Оуэн, Джереми Бобб, Лори Финкел, Стив Гарфанти, Ив Хьюсон, Андре Холлэнд, Эрик Джонсон и др.

    Описание

    Доктор Джон Такер работает хирургом в нью-йоркской больнице Никербокер. Самое интересное в это истории, что об этом Человек паук ничего не знал. Здесь применяют передовые методы и стараются помочь всем пациентам — но до изобретения лазерного скальпеля и компьютерной томографии еще очень далеко, а в карету скорой помощи запрягают лошадей.

    Продолжительность: ~00: 55: 00 серия
    Качество видео: HDTV
    Перевод: Многоголосый закадровый, профессиональный - NewStudio
    Видео: AVC/H.264, 1280x720 (16: 9), ~2474 kbps
    Аудио Rus: AC3, 6 ch, 384 Kbps - многоголосый закадровый
    Аудио Eng: AC3, 6 ch, 384 Kbps - оригинал
    Код:

    General
    Unique ID : 240739484586511693525315774940417499616 (0xB51CBCFBBBD2E8318C5D4832FEC221E0)
    Complete name : \mybooklivePublicDownloadsРаздачаThe.Knick.S02.720p.NewStudioThe.Knick.s02e01.HDTV.720p.NewStudio.TV.mkv
    Format : Matroska
    Format version : Version 4/Version 2
    File size : 1.27 GiB
    Duration : 54mn 53s
    Overall bit rate : 3 308 Kbps
    Encoded date : UTC 2015-10-19 13:44:37
    Writing application : mkvmerge v8.2.0 (\'World of Adventure\') 64bit
    Writing library : libebml v1.3.1 + libmatroska v1.4.2
    DURATION : 00:54:53.088000000
    NUMBER_OF_FRAMES : 102909
    NUMBER_OF_BYTES : 158068224
    _STATISTICS_WRITING_APP : mkvmerge v8.2.0 (\'World of Adventure\') 64bit
    _STATISTICS_WRITING_DATE_UTC : 2015-10-19 13:44:37
    _STATISTICS_TAGS : BPS DURATION NUMBER_OF_FRAMES NUMBER_OF_BYTES
    Video
    ID : 1
    Format : AVC
    Format/Info : Advanced Video Codec
    Format profile :High@L4.1
    Format settings, CABAC : Yes
    Format settings, ReFrames : 5 frames
    Codec ID : V_MPEG4/ISO/AVC
    Duration : 54mn 53s
    Bit rate : 2 474 Kbps
    Width : 1 280 pixels
    Height : 720 pixels
    Display aspect ratio : 16:9
    Frame rate mode : Constant
    Frame rate : 23.976 fps
    Color space : YUV
    Chroma subsampling : 4:2:0
    Bit depth : 8 bits
    Scan type : Progressive
    Bits/(Pixel*Frame) : 0.112
    Stream size : 971 MiB (75%)
    Writing library : x264 core 148 r2597 e86f3a1
    Encoding settings : cabac=1/ref=5/deblock=1:0:0/analyse=0x3:0x113/me=umh/subme=8/psy=1/psy_rd=1.00:0.00/mixed_ref=1/me_range=16/chroma_me=1/trellis=1/8x8dct=1/cqm=0/deadzone=21, 11/fast_pskip=1/chroma_qp_offset=-2/threads=22/lookahead_threads=3/sliced_threads=0/nr=0/decimate=1/interlaced=0/bluray_compat=0/constrained_intra=0/bframes=3/b_pyramid=2/b_adapt=2/b_bias=0/direct=3/weightb=1/open_gop=0/weightp=2/keyint=250/keyint_min=23/scenecut=40/intra_refresh=0/rc_lookahead=50/rc=crf/mbtree=1/crf=18.0/qcomp=0.60/qpmin=0/qpmax=69/qpstep=4/ip_ratio=1.40/aq=1:1.00
    Language : English
    Default : Yes
    Forced : No
    Color range : Limited
    Matrix coefficients : BT.709
    DURATION : 00:54:53.082000000
    NUMBER_OF_FRAMES : 78955
    NUMBER_OF_BYTES : 1044761115
    _STATISTICS_WRITING_APP : mkvmerge v8.2.0 (\'World of Adventure\') 64bit
    _STATISTICS_WRITING_DATE_UTC : 2015-10-19 13:44:37
    _STATISTICS_TAGS : BPS DURATION NUMBER_OF_FRAMES NUMBER_OF_BYTES
    Audio #1
    ID : 2
    Format : AC-3
    Format/Info : Audio Coding 3
    Mode extension : CM (complete main)
    Format settings, Endianness : Big
    Codec ID : A_AC3
    Duration : 54mn 53s
    Bit rate mode : Constant
    Bit rate : 384 Kbps
    Channel(s) : 6 channels
    Channel positions : Front: L C R, Side: L R, LFE
    Sampling rate : 48.0 KHz
    Compression mode : Lossy
    Stream size : 151 MiB (12%)
    Language : Russian
    Default : Yes
    Forced : Yes
    Audio #2
    ID : 3
    Format : AC-3
    Format/Info : Audio Coding 3
    Mode extension : CM (complete main)
    Format settings, Endianness : Big
    Codec ID : A_AC3
    Duration : 54mn 53s
    Bit rate mode : Constant
    Bit rate : 384 Kbps
    Channel(s) : 6 channels
    Channel positions : Front: L C R, Side: L R, LFE
    Sampling rate : 48.0 KHz
    Compression mode : Lossy
    Stream size : 151 MiB (12%)
    Default : No
    Forced : No


    Скриншоты для ознакомления




    Онлайн видео Больница Никербокер



    Больница Никербокер/Больница Ник/The Knick (2015) HDTV [H.264/720p-LQ] (сезон 2, серии 1 из 10) NewStudio (обновляемая)
    загрузка...
    Рейтинг →
     (голосов: 1, оценка 3/5, голосовать можно 1 раз )

    Другие торренты по теме:

  • Больница Никербокер / Больница Ник / The Knick (2014) HDTVRip [H.264 / 720p-LQ] (Сезон 1, Серия 1-6 из 10) NewStudio (обновляемая)
  • Больница Никербокер / Больница Ник / The Knick (2014) HDTVRip (Сезон 1, серия 01-06 из 10) (AlexFilm) (обновляемая)
  • Больница Никербокер / Больница Ник / The Knick (2014) HDTVRip (Сезон 1, серии 1-6 из 10) (NewStudio) (обновляемая)
  • Больница Никербокер / Больница Ник / The Knick (2015) HDTVRip (сезон 2, серии 1 из 10) NovaMedia (обновляемая) скачать через торрент бесплатно
  • Больница Никербокер / Больница Ник / The Knick (2015) HDTVRip (сезон 2, серии 1 из 10) NewStudio (обновляемая) скачать через торрент бесплатно
  • Больница Никербокер / Больница Ник / The Knick (2015) HDTVRip [H.264 / 1080-LQ] (сезон 2, серии 1 из 10) NovaMedia (обновляемая) скачать через торрент бесплатно
  • Больница Никербокер / Больница Ник / The Knick (2014) HDTVRip (сезон 1, серии 1-10 из 10) NewStudio скачать через торрент бесплатно
  • Больница Никербокер / The Knick (2014) HDTVRip (Сезон 1, серии 1-6 из 10) (BaibaKo) (обновляемая)


    • Комментарии (0):

      Информация

      Информация

        Посетители, находящиеся в группе Гости, не могут оставлять комментарии в данной новости.

        ↓ Меню




        ↓ Опрос

        Вы добавили сайт в закладки?
        Да
        Нет


        Top 10 за месяц (Фильмы)