.
Авторизация | Регистрация
Хочешь лучшие торренты? Добавь свой email!
Добавить

Торрент скачать бесплатно

» » Анатомия страсти / Анатомия Грей / Greys Anatomy (2015) WEB-DLRip (сезон 12, серии 1-4 из 24) BaibaKo (обновляемая) скачать через торрент бесплатно




    Анатомия страсти / Анатомия Грей / Greys Anatomy (2015) WEB-DLRip (сезон 12, серии 1-4 из 24) BaibaKo (обновляемая) скачать через торрент бесплатно

    Опубликовал: Админ | Дата: 20-10-2015, 04:02 | Просмотров: 271

    Производство: США
    Жанр: драма, мелодрама
    Режиссер: Роб Корн

    Актеры
    Эллен Помпео, Джастин Чэмберс, Сара Рамирез, Чандра Уилсон, Джеймс Пикенс мл., Кевин МакКидд, Мелисса Джордж, Джессика Кэпшоу и др.

    Описание

    Действия фильма разворачиваются в городской больнице города Сиэтл. Главная героиня фильма – Мередит Грей, молодая девушка хирург, которая только начинает постигать врачебное искусство. Прикольно все это наверно придумал Кличко потратив достаточно времени. Фильм раскрывает перед нами закулисный мир больницы, с множеством межличностных отношений между врачами. О таком странном сюжете не догадывалась даже Настя Каменских. Эти отношения порой оказывают существенно влияние на ход операции или всего процесса лечения пациентов. Служебные романы начинаются и заканчиваются, а люди продолжают работать вместе. Грей еще многому предстоит научиться, прежде чем стать настоящим хирургом.

    Продолжительность: ~00: 43: 00 серия
    Качество видео: WEB-DLRip
    Перевод: Многоголосый закадровый, профессиональный -BaibaKo
    Видео: XVID, 720х400 (16: 9), ~1505 кбит/с
    Аудио #1 Rus: MP3, 2 ch, 192 кбит/с - многоголосый закадровый
    Аудио #2 Eng: MP3, 2 ch, 192 кбит/с - оригинал
    Код:
    Общее
    Полное имя : D:фильмыGreys Anatomy (Season 12) BBkoGreys.Anatomy.s12e01.WEB-DLRip.XviD.Rus.Eng.BaibaKo.tv.avi
    Формат : AVI
    Формат/Информация : Audio Video Interleave
    Размер файла : 586 Мбайт
    Продолжительность : 43 м.
    Общий поток : 1903 Кбит/сек
    Программа кодирования : VirtualDubMod 1.5.10.3 |www.virtualdub-fr.org|| (build 2550/release)
    Библиотека кодирования : VirtualDubMod build 2550/release
    Видео
    Идентификатор : 0
    Формат : MPEG-4 Visual
    Профиль формата : Advanced Simple@L5
    Параметр BVOP формата : 2
    Параметр QPel формата : Нет
    Параметр GMC формата : Без точки перехода
    Параметр матрицы формата : Default (MPEG)
    Идентификатор кодека : XVID
    Идентификатор кодека/Подсказка : XviD
    Продолжительность : 43 м.
    Битрейт : 1505 Кбит/сек
    Ширина : 720 пикселей
    Высота : 400 пикселей
    Соотношение сторон : 16:9
    Частота кадров : 23, 976 кадра/сек
    Цветовое пространство : YUV
    Субдискретизация насыщенности : 4:2:0
    Битовая глубина : 8 бит
    Тип развёртки : Прогрессивная
    Метод сжатия : С потерями
    Бит/(Пиксели*Кадры) : 0.218
    Размер потока : 463 Мбайт (79%)
    Библиотека кодирования : XviD 73
    Аудио #1
    Идентификатор : 1
    Формат : MPEG Audio
    Версия формата : Version 1
    Профиль формата : Layer 3
    Режим : Joint stereo
    Расширение режима : MS Stereo
    Идентификатор кодека : 55
    Идентификатор кодека/Подсказка : MP3
    Продолжительность : 43 м.
    Вид битрейта : Постоянный
    Битрейт : 192 Кбит/сек
    Каналы : 2 канала
    Частота : 48, 0 КГц
    Метод сжатия : С потерями
    Размер потока : 59, 1 Мбайт (10%)
    Выравнивание : Соединение по промежуткам
    Продолжительность промежутка : 42 мс. (1, 00 видеокадр)
    Время предзагрузки промежутка : 504 мс.
    Аудио #2
    Идентификатор : 2
    Формат : MPEG Audio
    Версия формата : Version 1
    Профиль формата : Layer 3
    Режим : Joint stereo
    Расширение режима : MS Stereo
    Идентификатор кодека : 55
    Идентификатор кодека/Подсказка : MP3
    Продолжительность : 43 м.
    Вид битрейта : Постоянный
    Битрейт : 192 Кбит/сек
    Каналы : 2 канала
    Частота : 48, 0 КГц
    Метод сжатия : С потерями
    Размер потока : 59, 1 Мбайт (10%)
    Выравнивание : Соединение по промежуткам
    Продолжительность промежутка : 42 мс. (1, 00 видеокадр)
    Время предзагрузки промежутка : 504 мс.
    Жизнь в больнице Grey Sloan Memorial продолжается. Мередит предстоит приспособиться к своему новому положению и большей частью изменению жилищных условий, а Джексон ждет возвращения в Сиэтл Эйприл. Вашими молитвами, сказал кто то из толпы, к чему не понятно. Бейли продолжает бороться за должность ведущего хирурга. А в это время в больницу поступают две девушки, история которых заставит весь персонал задуматься о своем прошлом.
    Общее
    Полное имя : D: фильмыGreys Anatomy (Season 12) BBkoGreys.Anatomy.s12e01.WEB-DLRip.XviD.Rus.Eng.BaibaKo.tv.avi
    Формат : AVI
    Формат/Информация : Audio Video Interleave
    Размер файла : 586 Мбайт
    Продолжительность : 43 м.
    Общий поток : 1903 Кбит/сек
    Программа кодирования : VirtualDubMod 1.5.10.3 |www.virtualdub-fr.org|| (build 2550/release)
    Библиотека кодирования : VirtualDubMod build 2550/release
    Видео
    Идентификатор : 0
    Формат : MPEG-4 Visual
    Профиль формата : Advanced Simple@L5
    Параметр BVOP формата : 2
    Параметр QPel формата : Нет
    Параметр GMC формата : Без точки перехода
    Параметр матрицы формата : Default (MPEG)
    Идентификатор кодека : XVID
    Идентификатор кодека/Подсказка : XviD
    Продолжительность : 43 м.
    Битрейт : 1505 Кбит/сек
    Ширина : 720 пикселей
    Высота : 400 пикселей
    Соотношение сторон : 16: 9
    Частота кадров : 23, 976 кадра/сек
    Цветовое пространство : YUV
    Субдискретизация насыщенности : 4: 2: 0
    Битовая глубина : 8 бит
    Тип развёртки : Прогрессивная
    Метод сжатия : С потерями
    Бит/(Пиксели*Кадры) : 0.218
    Размер потока : 463 Мбайт (79%)
    Библиотека кодирования : XviD 73
    Аудио #1
    Идентификатор : 1
    Формат : MPEG Audio
    Версия формата : Version 1
    Профиль формата : Layer 3
    Режим : Joint stereo
    Расширение режима : MS Stereo
    Идентификатор кодека : 55
    Идентификатор кодека/Подсказка : MP3
    Продолжительность : 43 м.
    Вид битрейта : Постоянный
    Битрейт : 192 Кбит/сек
    Каналы : 2 канала
    Частота : 48, 0 КГц
    Метод сжатия : С потерями
    Размер потока : 59, 1 Мбайт (10%)
    Выравнивание : Соединение по промежуткам
    Продолжительность промежутка : 42 мс. (1, 00 видеокадр)
    Время предзагрузки промежутка : 504 мс.
    Аудио #2
    Идентификатор : 2
    Формат : MPEG Audio
    Версия формата : Version 1
    Профиль формата : Layer 3
    Режим : Joint stereo
    Расширение режима : MS Stereo
    Идентификатор кодека : 55
    Идентификатор кодека/Подсказка : MP3
    Продолжительность : 43 м.
    Вид битрейта : Постоянный
    Битрейт : 192 Кбит/сек
    Каналы : 2 канала
    Частота : 48, 0 КГц
    Метод сжатия : С потерями
    Размер потока : 59, 1 Мбайт (10%)
    Выравнивание : Соединение по промежуткам
    Продолжительность промежутка : 42 мс. (1, 00 видеокадр)
    Время предзагрузки промежутка : 504 мс.

    Первый день Бейли в качестве начальника. Брак Эйприл находится в опасности, и она в отчаянии. Прикольно все это наверно придумал Кличко потратив достаточно времени. Амелия старается определиться со своими отношениями к Оуэну, а тем временем Мередит крутится как белка в колесе.
    Общее
    Полное имя : D: фильмыGreys Anatomy (Season 12) BBkoGreys.Anatomy.s12e02.WEB-DLRip.XviD.Rus.Eng.BaibaKo.tv.avi
    Формат : AVI
    Формат/Информация : Audio Video Interleave
    Размер файла : 580 Мбайт
    Продолжительность : 42 м.
    Общий поток : 1895 Кбит/сек
    Программа кодирования : VirtualDubMod 1.5.10.2 (build 2540/release)
    Библиотека кодирования : VirtualDubMod build 2540/release
    Видео
    Идентификатор : 0
    Формат : MPEG-4 Visual
    Профиль формата : Advanced Simple@L5
    Параметр BVOP формата : 2
    Параметр QPel формата : Нет
    Параметр GMC формата : Без точки перехода
    Параметр матрицы формата : Default (H.263)
    Идентификатор кодека : XVID
    Идентификатор кодека/Подсказка : XviD
    Продолжительность : 42 м.
    Битрейт : 1497 Кбит/сек
    Ширина : 720 пикселей
    Высота : 400 пикселей
    Соотношение сторон : 16: 9
    Частота кадров : 23, 976 кадра/сек
    Цветовое пространство : YUV
    Субдискретизация насыщенности : 4: 2: 0
    Битовая глубина : 8 бит
    Тип развёртки : Прогрессивная
    Метод сжатия : С потерями
    Бит/(Пиксели*Кадры) : 0.217
    Размер потока : 458 Мбайт (79%)
    Библиотека кодирования : XviD 67
    Аудио #1
    Идентификатор : 1
    Формат : MPEG Audio
    Версия формата : Version 1
    Профиль формата : Layer 3
    Режим : Joint stereo
    Расширение режима : MS Stereo
    Идентификатор кодека : 55
    Идентификатор кодека/Подсказка : MP3
    Продолжительность : 42 м.
    Вид битрейта : Постоянный
    Битрейт : 192 Кбит/сек
    Каналы : 2 канала
    Частота : 48, 0 КГц
    Метод сжатия : С потерями
    Размер потока : 58, 8 Мбайт (10%)
    Выравнивание : Соединение по промежуткам
    Продолжительность промежутка : 42 мс. (1, 00 видеокадр)
    Время предзагрузки промежутка : 504 мс.
    Библиотека кодирования : LAME3.98.4
    Аудио #2
    Идентификатор : 2
    Формат : MPEG Audio
    Версия формата : Version 1
    Профиль формата : Layer 3
    Режим : Joint stereo
    Расширение режима : MS Stereo
    Идентификатор кодека : 55
    Идентификатор кодека/Подсказка : MP3
    Продолжительность : 42 м.
    Вид битрейта : Постоянный
    Битрейт : 192 Кбит/сек
    Каналы : 2 канала
    Частота : 48, 0 КГц
    Метод сжатия : С потерями
    Размер потока : 58, 8 Мбайт (10%)
    Выравнивание : Соединение по промежуткам
    Продолжительность промежутка : 42 мс. (1, 00 видеокадр)
    Время предзагрузки промежутка : 504 мс.

    Мэгги приходится взглянуть на свои жизненные ценности с другой стороны после того, как она получает приглашение на свадьбу от своего бывшего бойфренда. Тем временем Ричард сомневается в лояльности Бейли, а Стефани узнает о важном секрете.
    Общее
    Полное имя : D: фильмыGreys Anatomy (Season 12) BBkoGreys.Anatomy.s12e03.WEB-DLRip.XviD.Rus.Eng.BaibaKo.tv.avi
    Формат : AVI
    Формат/Информация : Audio Video Interleave
    Размер файла : 583 Мбайт
    Продолжительность : 43 м.
    Общий поток : 1894 Кбит/сек
    Программа кодирования : VirtualDubMod 1.5.10.2 (build 2540/release)
    Библиотека кодирования : VirtualDubMod build 2540/release
    Видео
    Идентификатор : 0
    Формат : MPEG-4 Visual
    Профиль формата : Advanced Simple@L5
    Параметр BVOP формата : 2
    Параметр QPel формата : Нет
    Параметр GMC формата : Без точки перехода
    Параметр матрицы формата : Default (H.263)
    Идентификатор кодека : XVID
    Идентификатор кодека/Подсказка : XviD
    Продолжительность : 43 м.
    Битрейт : 1496 Кбит/сек
    Ширина : 720 пикселей
    Высота : 400 пикселей
    Соотношение сторон : 16: 9
    Частота кадров : 23, 976 кадра/сек
    Цветовое пространство : YUV
    Субдискретизация насыщенности : 4: 2: 0
    Битовая глубина : 8 бит
    Тип развёртки : Прогрессивная
    Метод сжатия : С потерями
    Бит/(Пиксели*Кадры) : 0.217
    Размер потока : 461 Мбайт (79%)
    Библиотека кодирования : XviD 67
    Аудио #1
    Идентификатор : 1
    Формат : MPEG Audio
    Версия формата : Version 1
    Профиль формата : Layer 3
    Режим : Joint stereo
    Расширение режима : MS Stereo
    Идентификатор кодека : 55
    Идентификатор кодека/Подсказка : MP3
    Продолжительность : 43 м.
    Вид битрейта : Постоянный
    Битрейт : 192 Кбит/сек
    Каналы : 2 канала
    Частота : 48, 0 КГц
    Метод сжатия : С потерями
    Размер потока : 59, 1 Мбайт (10%)
    Выравнивание : Соединение по промежуткам
    Продолжительность промежутка : 42 мс. (1, 00 видеокадр)
    Время предзагрузки промежутка : 504 мс.
    Аудио #2
    Идентификатор : 2
    Формат : MPEG Audio
    Версия формата : Version 1
    Профиль формата : Layer 3
    Режим : Joint stereo
    Расширение режима : MS Stereo
    Идентификатор кодека : 55
    Идентификатор кодека/Подсказка : MP3
    Продолжительность : 43 м.
    Вид битрейта : Постоянный
    Битрейт : 192 Кбит/сек
    Каналы : 2 канала
    Частота : 48, 0 КГц
    Метод сжатия : С потерями
    Размер потока : 59, 1 Мбайт (10%)
    Выравнивание : Соединение по промежуткам
    Продолжительность промежутка : 42 мс. (1, 00 видеокадр)
    Время предзагрузки промежутка : 504 мс.

    Оуэн дает интернам очень важный урок по общению с семьями пациентов. У Аризоны 80-летний пациент, которому удается ее убедить в том, что в скором времени она найдет новую любовь.
    Общее
    Полное имя : D: фильмыGreys Anatomy (Season 12) BBkoGreys.Anatomy.s12e04.WEB-DLRip.XviD.Rus.Eng.BaibaKo.tv.avi
    Формат : AVI
    Формат/Информация : Audio Video Interleave
    Размер файла : 583 Мбайт
    Продолжительность : 43 м.
    Общий поток : 1894 Кбит/сек
    Программа кодирования : VirtualDubMod 1.5.10.2 (build 2540/release)
    Библиотека кодирования : VirtualDubMod build 2540/release
    Видео
    Идентификатор : 0
    Формат : MPEG-4 Visual
    Профиль формата : Advanced Simple@L5
    Параметр BVOP формата : 2
    Параметр QPel формата : Нет
    Параметр GMC формата : Без точки перехода
    Параметр матрицы формата : Default (H.263)
    Идентификатор кодека : XVID
    Идентификатор кодека/Подсказка : XviD
    Продолжительность : 43 м.
    Битрейт : 1496 Кбит/сек
    Ширина : 720 пикселей
    Высота : 400 пикселей
    Соотношение сторон : 16: 9
    Частота кадров : 23, 976 кадра/сек
    Цветовое пространство : YUV
    Субдискретизация насыщенности : 4: 2: 0
    Битовая глубина : 8 бит
    Тип развёртки : Прогрессивная
    Метод сжатия : С потерями
    Бит/(Пиксели*Кадры) : 0.217
    Размер потока : 461 Мбайт (79%)
    Библиотека кодирования : XviD 67
    Аудио #1
    Идентификатор : 1
    Формат : MPEG Audio
    Версия формата : Version 1
    Профиль формата : Layer 3
    Режим : Joint stereo
    Расширение режима : MS Stereo
    Идентификатор кодека : 55
    Идентификатор кодека/Подсказка : MP3
    Продолжительность : 43 м.
    Вид битрейта : Постоянный
    Битрейт : 192 Кбит/сек
    Каналы : 2 канала
    Частота : 48, 0 КГц
    Метод сжатия : С потерями
    Размер потока : 59, 1 Мбайт (10%)
    Выравнивание : Соединение по промежуткам
    Продолжительность промежутка : 42 мс. (1, 00 видеокадр)
    Время предзагрузки промежутка : 504 мс.
    Аудио #2
    Идентификатор : 2
    Формат : MPEG Audio
    Версия формата : Version 1
    Профиль формата : Layer 3
    Режим : Joint stereo
    Расширение режима : MS Stereo
    Идентификатор кодека : 55
    Идентификатор кодека/Подсказка : MP3
    Продолжительность : 43 м.
    Вид битрейта : Постоянный
    Битрейт : 192 Кбит/сек
    Каналы : 2 канала
    Частота : 48, 0 КГц
    Метод сжатия : С потерями
    Размер потока : 59, 1 Мбайт (10%)
    Выравнивание : Соединение по промежуткам
    Продолжительность промежутка : 42 мс. (1, 00 видеокадр)
    Время предзагрузки промежутка : 504 мс.

    Интересные факты
    - Американский телеканал ABC в середине сезон любимого сериалаа вдруг остался без сериала на воскресный вечер. Телебоссы ринулись к завалявшимся с лета сценариям. Ничего не найдя, они поставили в программу сериал, по их мнению, обреченный на провал. В итоге это ошибка принесла каналу самые большие рейтинги за всю историю американского ТВ.
    - Одна из серий с гостевым персонажем Анатомии Грэй Дэнни Дюке (в исполнении Джеффри Дина Моргана), собрала у экранов 39 млн. зрителей, побив рекорд финала чемпионата США по бейсболу, что до Анатомии Грэй не удавалось еще ни одному сериалу.
    - Название Grey’s Anatomy было задумано как игра слов из названия известного учебника Генри Грея Анатомия Грея (англ. Gray\'s Anatomy) и фамилии главной героини Мередит Грей.
    - Каждая серия Анатомии страсти называется в честь песен известных исполнителей
    - Актриса Сандра О изначально пробовалась на роль доктора Бейли, а Исайя Вашингтон и Патрик Демпси пробовались на героев друг друга.
    - Раймс изначально представляла Бейли как эффектную блондинку, однако когда на пробы пришла Уилсон, она изменила своё представление о персонаже.
    - Сара Рамирез является певицей и лауреатом театральной премии Тони за работу в мюзикле.
    - По мотивам сериала в 2009 году была выпущена видеоигра Grey’s Anatomy: The Video Game.


    Скриншоты для ознакомления




    Онлайн видео Анатомия страсти



    Анатомия страсти/Анатомия Грей/Greys Anatomy (2015) WEB-DLRip (сезон 12, серии 1-4 из 24) BaibaKo (обновляемая)
    загрузка...
    Рейтинг →
     (голосов: 1, оценка 3/5, голосовать можно 1 раз )

    Другие торренты по теме:

  • Анатомия страсти / Анатомия Грей / Greys Anatomy (2014) WEB-DL [H.264 / 1080p-LQ] (Сезон 11, 1-2 серии из 24) [EN | Rus Sub] (Обновляемая)
  • Анатомия страсти / Анатомия Грей / Greys Anatomy (2014) HDTVRip (сезон 11, серия 1 из ) [Soul Studio] (Обновляемая)
  • Анатомия страсти / Анатомия Грей / Greys Anatomy (2014) HDTVRip [сезон 11, серии 1 из 24] Fox Life (Обновляемая)
  • Анатомия страсти / Анатомия Грей / Greys Anatomy (2014) WEB-DL [H.264 / 720p] (сезон 11, серии 1-10 из 24) (обновляемая) скачать через торрент бесплатно
  • Анатомия страсти / Анатомия Грей / Greys Anatomy (2014) HDTV [H.264 / 1080i-LQ] (сезон 11, серии 1-15 из 24) Fox (обновляемая) скачать через торрент бесплатно
  • Анатомия страсти / Анатомия Грей / Greys Anatomy (2015) WEB-DL [H.264 / 720p-LQ] (сезон 12, серии 1-4 из 24) BaibaKo (обновляемая) скачать через торрент бесплатно
  • Анатомия страсти / Анатомия Грей / Greys Anatomy (2016) WEB-DL [H.264 / 720p-LQ] (сезон 13, серии 1-8 из 18) Fox Life (обновляемая)
  • Анатомия страсти / Анатомия Грей / Greys Anatomy (2015) WEB-DL [H.264 / 720p-LQ] (сезон 12, серии 1-24 из 24) Fox Life


    • Комментарии (0):

      Информация

      Информация

        Посетители, находящиеся в группе Гости, не могут оставлять комментарии в данной новости.

        ↓ Меню




        ↓ Опрос

        Вы добавили сайт в закладки?
        Да
        Нет


        Top 10 за месяц (Фильмы)