.
Авторизация | Регистрация
Хочешь лучшие торренты? Добавь свой email!
Добавить

Торрент скачать бесплатно

» » Паук (2015) HDTV [H.264 / 1080i-LQ] (серии 1-2 из 8) (обновляемая) скачать через торрент бесплатно




    Паук (2015) HDTV [H.264 / 1080i-LQ] (серии 1-2 из 8) (обновляемая) скачать через торрент бесплатно

    Опубликовал: Админ | Дата: 20-10-2015, 04:02 | Просмотров: 44

    Производство: Россия/Первый канал
    Жанр: детектив, криминал, триллер
    Режиссер: Евгений Звездаков

    Актеры
    Андрей Смоляков, Марина Александрова, Владимир Юматов, Мария Андреева, Сергей Угрюмов, Сергей Годин, Марк Богатырёв, Каролина Грушка, Родион Нахапетов, Андрис Лиелайс, Юрий Тарасов, Вадим Андреев, Алексей Бардуков, Юрий Чурсин и др.

    Описание

    Третий фильм проекта об опергруппе Черкасова - Гознак. По мотивам еще одной знаменитой истории - ограблении Госбанка Армянской ССР в 1977 году, когда братья Калачян обнесли казну на полтора миллиона рублей (два миллиона долларов по тогдашнему курсу). Это было самое крупное похищение в Советском Союзе. 1967 год. Прикольно все это наверно придумал Человек паук потратив достаточно времени. Москва. Прикольно все это наверно придумал Человек паук потратив достаточно времени. Убита манекенщица из Дома моды. На место преступления приезжает группа майора Черкасова. Он срочным порядком внедряет в Дом моды своего человека – Соню Тимофееву, главной задачей которой является получение информации об отношениях между работниками Домы моды. Вскоре погибает еще одна манекенщица. О таком странном сюжете не догадывалась даже Ольга Полякова. И одновременно с этим убийством происходит очень дерзкое преступление - ограбление Гознака...
    Криминальный триллер Гознак является продолжением сериалов Мосгаз и Палач.

    Дата премьеры в РФ: 19 октября 2015
    Продолжительность: ~ 00: 50: 00 серия
    Качество видео: HDTV (1080i)
    Видео: AVC/H.264, 1920х1080 (16: 9), ~8400 kbps
    Аудио 1 Rus: АС3, 48.0 KHz, 6 ch, 384 Kbps, CBR
    Аудио 2 Rus: MP2, 48.0 KHz, 2 ch, 192 Kbps, CBR
    Код:
    Общее
    Идентификатор : 1 (0x1)
    Полное имя : D:Паук.HDTV(1080i)Pauk.01.HDTV(1080i).GeneralFilm.ts
    Формат : MPEG-TS
    Размер файла : 3, 42 Гбайт
    Продолжительность : 51 м.
    Режим общего битрейта : Переменный
    Общий поток : 9460 Кбит/сек
    Видео
    Идентификатор : 4121 (0x1019)
    Идентификатор меню : 80 (0x50)
    Формат : AVC
    Формат/Информация : Advanced Video Codec
    Профиль формата :Main@L4.0
    Параметр CABAC формата : Да
    Параметр ReFrames формата : 3 кадра
    Параметр GOP формата : M=4, N=32
    Идентификатор кодека : 27
    Продолжительность : 51 м.
    Битрейт : 8410 Кбит/сек
    Ширина : 1920 пикселей
    Высота : 1080 пикселей
    Соотношение сторон : 16:9
    Частота кадров : 25, 000 кадров/сек
    Стандарт вещания : Component
    Цветовое пространство : YUV
    Субдискретизация насыщенности : 4:2:0
    Битовая глубина : 8 бит
    Тип развёртки : Чересстрочная
    Порядок развёртки : Верхнее поле первое
    Бит/(Пиксели*Кадры) : 0.162
    Размер потока : 3, 04 Гбайт (89%)
    Основные цвета : BT.709
    Характеристики трансфера : BT.709
    Коэффициенты матрицы : BT.709
    Аудио #1
    Идентификатор : 4124 (0x101C)
    Идентификатор меню : 80 (0x50)
    Формат : AC-3
    Формат/Информация : Audio Coding 3
    Расширение режима : CM (complete main)
    Параметр Endianness формата : Big
    Идентификатор кодека : 6
    Продолжительность : 51 м.
    Вид битрейта : Постоянный
    Битрейт : 384 Кбит/сек
    Каналы : 6 каналов
    Расположение каналов : Front: L C R, Side: L R, LFE
    Частота : 48, 0 КГц
    Битовая глубина : 16 бит
    Метод сжатия : С потерями
    Задержка видео : -120 мс.
    Размер потока : 142 Мбайт (4%)
    Язык : Russian
    Аудио #2
    Идентификатор : 4125 (0x101D)
    Идентификатор меню : 80 (0x50)
    Формат : MPEG Audio
    Версия формата : Version 1
    Профиль формата : Layer 2
    Идентификатор кодека : 3
    Продолжительность : 51 м.
    Вид битрейта : Постоянный
    Битрейт : 192 Кбит/сек
    Каналы : 2 канала
    Частота : 48, 0 КГц
    Метод сжатия : С потерями
    Задержка видео : -120 мс.
    Размер потока : 71, 2 Мбайт (2%)
    Язык : Russian


    Скриншоты для ознакомления




    Онлайн видео Паук (2015) HDTV [H.264



    Паук (2015) HDTV [H.264/1080i-LQ] (серии 1-2 из 8) (обновляемая)
    загрузка...
    Рейтинг →
     (голосов: 1, оценка 5/5, голосовать можно 1 раз )

    Другие торренты по теме:

  • Новый Человек-паук: Высокое напряжение / The Amazing Spider-Man 2 (2014) BDRip [576p] iPad
  • Новый Человек-паук: Высокое напряжение / The Amazing Spider-Man 2: Rise of Electro (2014) BDRemux [1080p]
  • Новый Человек-паук: Высокое напряжение / The Amazing Spider-Man 2: Rise of Electro (2014) HDRip [AVO]
  • И пришел паук / Along Came a Spider (2001) DVD5
  • И пришел паук / Along Came a Spider (2001) DVD9
  • Е. Рябова (сост.) | Аокумо - Голубой паук. 50 японских историй о чудесах и привидениях (2002) [FB2] скачать через торрент бесплатно
  • Новый Человек-паук 2 / The Amazing Spider-Man 2 v1.2.0m (Offline) 1.2.0m [Ru / En] скачать через торрент бесплатно
  • Пасьянс Паук. 1.0.1 [Ru] скачать через торрент бесплатно


    • Комментарии (0):

      Информация

      Информация

        Посетители, находящиеся в группе Гости, не могут оставлять комментарии в данной новости.

        ↓ Меню




        ↓ Опрос

        Вы добавили сайт в закладки?
        Да
        Нет


        Top 10 за месяц (Фильмы)