.
Авторизация | Регистрация
Хочешь лучшие торренты? Добавь свой email!
Добавить

Торрент скачать бесплатно

» » Паук (2015) WEB-DLRip [H.264 / 1080p-LQ] (серии 1- из 8) (обновляемая) скачать через торрент бесплатно




    Паук (2015) WEB-DLRip [H.264 / 1080p-LQ] (серии 1- из 8) (обновляемая) скачать через торрент бесплатно

    Опубликовал: Админ | Дата: 20-10-2015, 04:02 | Просмотров: 49

    Производство: Россия/Красный квадрат, студия Русский Проект
    Жанр: детектив, криминал, триллер
    Режиссер: Евгений Звездаков

    Актеры
    Андрей Смоляков, Марина Александрова, Владимир Юматов, Мария Андреева, Сергей Угрюмов, Сергей Годин, Марк Богатырёв, Каролина Грушка, Родион Нахапетов, Андрис Лиелайс, Юрий Тарасов, Вадим Андреев, Алексей Бардуков, Юрий Чурсин и др.

    Описание

    Третий фильм проекта об опергруппе Черкасова - Гознак. По мотивам еще одной знаменитой истории - ограблении Госбанка Армянской ССР в 1977 году, когда братья Калачян обнесли казну на полтора миллиона рублей (два миллиона долларов по тогдашнему курсу). Это было самое крупное похищение в Советском Союзе.
    На дворе 1967 год, в городе складывается тяжелая обстановка, а все из-за того, что на границах памятника отца революции найдены трупы манекенщиц.

    Дата премьеры в РФ: 19 октября 2015
    Продолжительность: ~00: 50: 00 серия
    Качество видео: WEB-DLRip
    Видео: AVC/H.264, 1920х1080 (16: 9), ~4700 kbps
    Аудио: AC3, 2 ch, 192 kbps, CBR
    Код:
    Общее
    Уникальный идентификатор : 183994336746762503950051522790439374506 (0x8A6C0530AA5B0EA9AE4F9BB15971CEAA)
    Полное имя : F:DOWNLOADSПаук (2015) WEB-DLRip 1080Паук - 01 серия.mkv
    Формат : Matroska
    Версия формата : Version 2
    Размер файла : 1, 82 Гбайт
    Продолжительность : 52 м.
    Общий поток : 4999 Кбит/сек
    Дата кодирования : UTC 2015-10-19 18:39:05
    Программа кодирования : mkvmerge v7.8.0 (\'River Man\') 32bit built on Apr 3 2015 12:11:22
    Библиотека кодирования : libebml v1.3.1 + libmatroska v1.4.2
    Видео
    Идентификатор : 1
    Формат : AVC
    Формат/Информация : Advanced Video Codec
    Профиль формата :High@L4.1
    Параметр CABAC формата : Да
    Параметр ReFrames формата : 5 кадров
    Идентификатор кодека : V_MPEG4/ISO/AVC
    Продолжительность : 52 м.
    Битрейт : 4708 Кбит/сек
    Ширина : 1920 пикселей
    Высота : 1080 пикселей
    Соотношение сторон : 16:9
    Режим частоты кадров : Постоянный
    Частота кадров : 25, 000 кадров/сек
    Цветовое пространство : YUV
    Субдискретизация насыщенности : 4:2:0
    Битовая глубина : 8 бит
    Тип развёртки : Прогрессивная
    Бит/(Пиксели*Кадры) : 0.091
    Размер потока : 1, 71 Гбайт (94%)
    Default : Да
    Forced : Нет
    Аудио
    Идентификатор : 2
    Формат : AC-3
    Формат/Информация : Audio Coding 3
    Расширение режима : CM (complete main)
    Параметр Endianness формата : Big
    Идентификатор кодека : A_AC3
    Продолжительность : 52 м.
    Вид битрейта : Постоянный
    Битрейт : 192 Кбит/сек
    Каналы : 2 канала
    Расположение каналов : Front: L R
    Частота : 48, 0 КГц
    Метод сжатия : С потерями
    Размер потока : 71, 5 Мбайт (4%)
    Default : Да
    Forced : Нет


    Скриншоты для ознакомления




    Онлайн видео Паук (2015) WEB-DLRip [H.264



    Паук (2015) WEB-DLRip [H.264/1080p-LQ] (серии 1- из 8) (обновляемая)
    загрузка...
    Рейтинг →
     (голосов: 1, оценка 5/5, голосовать можно 1 раз )

    Другие торренты по теме:

  • Паук (2015) WEB-DLRip [H.264 / 720p-LQ] (серии 1- из 8) (обновляемая) скачать через торрент бесплатно
  • Паук (2015) WEB-DLRip (серии 1-8 из 8) скачать через торрент бесплатно


    • Комментарии (0):

      Информация

      Информация

        Посетители, находящиеся в группе Гости, не могут оставлять комментарии в данной новости.

        ↓ Меню




        ↓ Опрос

        Вы добавили сайт в закладки?
        Да
        Нет


        Top 10 за месяц (Фильмы)