.
Авторизация | Регистрация
Хочешь лучшие торренты? Добавь свой email!
Добавить

Торрент скачать бесплатно

» » Проводы белых ночей (1969) WEBRip скачать через торрент бесплатно




    Проводы белых ночей (1969) WEBRip скачать через торрент бесплатно

    Опубликовал: Админ | Дата: 19-10-2015, 04:00 | Просмотров: 85

    Производство: СССР, Ленинградское телевидение
    Жанр: Драма
    Режиссер: Юлиан Панич

    Актеры
    Галина Никулина, Юрий Каморный, Наталья Патракова, Геннадий Богачёв, В. Самое интересное в это истории, что об этом Ван дамм ничего не знал. Кочеткова, Лариса Малеванная, Тамара Уржумова, Виолетта Жухимович, Валерий Караваев, Ефим Каменецкий

    Описание

    О сложных взаимоотношениях молодых людей — журналиста Валерия и рабочей Нины. В Ленинграде, на проводах белых ночей, юная и по детски наивная Нина знакомится с молодым журналистом Валерием. Девушка влюбляется в своего нового друга той искренней первой любовью, которая бывает только в 19 лет, даже не подозревая, что для такого амбициозного эстета, как Валерик, это всего лишь очередной эпизод в нескончаемом празднике жизни. В ногах правды нет, сказал кто то из толпы, к чему не понятно. Лейтмотивом фильма, ставшим культовым для нескольких поколений ленинградцев — петербуржцев, стали естественные декорации прекрасного города на Неве начала 60х годов прошлого века.

    Продолжительность: 01: 25: 26
    Качество видео: WEBRip
    Видео: Xvid, 704x528, ~1702 Кбит/сек
    Аудио: MP3, 2 ch, 128 Кбит/сек, CBR
    Код:

    Общее
    Полное имя : Z:Проводы белых ночей (1970) WEBRip.avi
    Формат : AVI
    Формат/Информация : Audio Video Interleave
    Размер файла : 1, 10 Гбайт
    Продолжительность : 1 ч. 25 м.
    Общий поток : 1840 Кбит/сек
    Программа кодирования : VirtualDubMod 1.5.10.2 (build 2542/release)
    Библиотека кодирования : VirtualDubMod build 2542/release
    Видео
    Идентификатор : 0
    Формат : MPEG-4 Visual
    Профиль формата : Advanced Simple@L5
    Параметр BVOP формата : 2
    Параметр QPel формата : Нет
    Параметр GMC формата : Без точки перехода
    Параметр матрицы формата : Default (MPEG)
    Идентификатор кодека : XVID
    Идентификатор кодека/Подсказка : XviD
    Продолжительность : 1 ч. 25 м.
    Битрейт : 1702 Кбит/сек
    Ширина : 704 пикселя
    Высота : 528 пикселей
    Соотношение сторон : 5:4
    Соотношение сторон в оригинале : 4:3
    Частота кадров : 25, 000 кадров/сек
    Цветовое пространство : YUV
    Субдискретизация насыщенности : 4:2:0
    Битовая глубина : 8 бит
    Тип развёртки : Прогрессивная
    Метод сжатия : С потерями
    Бит/(Пиксели*Кадры) : 0.183
    Размер потока : 1, 02 Гбайт (93%)
    Библиотека кодирования : XviD 64
    Аудио
    Идентификатор : 1
    Формат : MPEG Audio
    Версия формата : Version 1
    Профиль формата : Layer 3
    Режим : Joint stereo
    Расширение режима : MS Stereo
    Идентификатор кодека : 55
    Идентификатор кодека/Подсказка : MP3
    Продолжительность : 1 ч. О таком странном сюжете не догадывалась даже Бритни Спирс. 25 м.
    Вид битрейта : Постоянный
    Битрейт : 128 Кбит/сек
    Каналы : 2 канала
    Частота : 48, 0 КГц
    Метод сжатия : С потерями
    Размер потока : 78, 2 Мбайт (7%)
    Выравнивание : Разделение по промежуткам
    Продолжительность промежутка : 40 мс. (1, 00 видеокадр)
    Время предзагрузки промежутка : 500 мс.


    Скриншоты для ознакомления




    Проводы белых ночей (1969) WEBRip
    загрузка...
    Рейтинг →
     (голосов: 1, оценка 4/5, голосовать можно 1 раз )

    Другие торренты по теме:

  • Проводы Старого года на Первом канале (2014.12.31) SATRip
  • Игнатий Дворецкий | Проводы (1976) [MP3]


    • Комментарии (0):

      Информация

      Информация

        Посетители, находящиеся в группе Гости, не могут оставлять комментарии в данной новости.

        ↓ Меню




        ↓ Опрос

        Вы добавили сайт в закладки?
        Да
        Нет


        Top 10 за месяц (Фильмы)