.
Авторизация | Регистрация
Хочешь лучшие торренты? Добавь свой email!
Добавить

Торрент скачать бесплатно

» » Ботаны (2015) SATRip (серии 1-8 из 60) (обновляемая) скачать через торрент бесплатно




    Ботаны (2015) SATRip (серии 1-8 из 60) (обновляемая) скачать через торрент бесплатно

    Опубликовал: Админ | Дата: 18-10-2015, 04:00 | Просмотров: 53

    Производство: Россия/ООО Студия Муравей
    Жанр: комедия
    Режиссер: Дмитрий Дакович

    Актеры
    Артем Маркарьян, Константин Давыдов, Герман Черных, Артём Киселёв, Сергей Дорохин, Артем Лысков, Ярослав Маланин, Сергей Чернобай, Джан Бадмаев, Андрей Касницкий и др.

    Описание

    Бурное развитие компьютеризации и сетевых утилит приводит к возникновению нового рода войск, которые будут противодействовать потенциальному противнику в кибер пространстве. Виртуальный мир интернета, глобальной паутины, социальных сетей требует от современной армии иных возможностей. Типичный ограниченный уставом служака становится у руля продвинутой структуры, пытаясь набрать в Кибер войска настоящих воинов.

    Дата российской премьеры: 17 октября 2015
    Продолжительность: ~ 00: 35: 00 серия
    Качество видео: SATRip
    Видео: XviD, 720x400 (16: 9), 50.000 fps, ~1600 Kbps
    Аудио: AC-3, 48.0 KHz, 2 ch, 192 Kbps, CBR
    Код:
    Общее
    Полное имя : E:NNMБотаныBotany 2015 SATRipBotany seriya 01 2015 SATRip.avi
    Формат : AVI
    Формат/Информация : Audio Video Interleave
    Размер файла : 427 Мбайт
    Продолжительность : 33 м.
    Общий поток : 1808 Кбит/сек
    Программа кодирования : Lavf56.25.101
    Видео
    Идентификатор : 0
    Формат : MPEG-4 Visual
    Профиль формата : Advanced Simple@L5
    Параметр BVOP формата : 1
    Параметр QPel формата : Нет
    Параметр GMC формата : Без точки перехода
    Параметр матрицы формата : Default (H.263)
    Идентификатор кодека : XVID
    Идентификатор кодека/Подсказка : XviD
    Продолжительность : 33 м.
    Битрейт : 1600 Кбит/сек
    Ширина : 720 пикселей
    Высота : 400 пикселей
    Соотношение сторон : 16:9
    Частота кадров : 50, 000 кадров/сек
    Цветовое пространство : YUV
    Субдискретизация насыщенности : 4:2:0
    Битовая глубина : 8 бит
    Тип развёртки : Прогрессивная
    Метод сжатия : С потерями
    Бит/(Пиксели*Кадры) : 0.111
    Размер потока : 378 Мбайт (89%)
    Библиотека кодирования : XviD 67
    Аудио
    Идентификатор : 1
    Формат : AC-3
    Формат/Информация : Audio Coding 3
    Расширение режима : CM (complete main)
    Идентификатор кодека : 2000
    Продолжительность : 33 м.
    Вид битрейта : Постоянный
    Битрейт : 192 Кбит/сек
    Каналы : 2 канала
    Расположение каналов : Front: L R
    Частота : 48, 0 КГц
    Битовая глубина : 16 бит
    Метод сжатия : С потерями
    Размер потока : 45, 4 Мбайт (11%)
    Выравнивание : Соединение по промежуткам
    Продолжительность промежутка : 32 мс. (1, 60 видеокадра)


    Скриншоты для ознакомления




    Онлайн видео Ботаны (2015) SATRip (серии 1



    Ботаны (2015) SATRip (серии 1-8 из 60) (обновляемая)
    загрузка...
    Рейтинг →
     (голосов: 1, оценка 3/5, голосовать можно 1 раз )

    Другие торренты по теме:



      Комментарии (0):

      Информация

      Информация

        Посетители, находящиеся в группе Гости, не могут оставлять комментарии в данной новости.

        ↓ Меню




        ↓ Опрос

        Вы добавили сайт в закладки?
        Да
        Нет


        Top 10 за месяц (Фильмы)