.
Авторизация | Регистрация
Хочешь лучшие торренты? Добавь свой email!
Добавить

Торрент скачать бесплатно

» » Жених с того света (1958) DVBRip скачать через торрент бесплатно




    Жених с того света (1958) DVBRip скачать через торрент бесплатно

    Опубликовал: Админ | Дата: 17-10-2015, 04:00 | Просмотров: 115

    Производство: CCCР
    Жанр: Комедия
    Режиссер: Леонид Гайдай

    Актеры
    Ростислав Плятт, Георгий Вицин, Вера Алтайская, Рина Зелёная

    Описание

    Глава учреждения КУКУ (Кустовое управление курортными учреждениями) виртуоз-бюрократ Петухов (Ростислав Плятт) попадает в щекотливое положение: вернувшись после трёхдневного отсутствия от невесты, он обнаруживает, что его похоронили, причем на совершенно законных основаниях. Самое интересное в это истории, что об этом Гендельф ничего не знал. Тело человека, погибшего под машиной, было ошибочно принято за тело Петухова.

    Продолжительность: 00: 47: 39
    Качество видео: DVBRip
    Видео: MPEG2 Video, 720x576@768@576 (4: 3), 25, 000 кадров/сек, 4425 Кбит/сек
    Аудио: MPEG Audio, 48, 0 КГц, 192 Кбит/сек, 2 канала
    Код:

    General
    Complete name : Z:MPGЖЕНИХ С ТОГО СВЕТА (Zvezda 55).mpg
    Format : MPEG-PS
    File size : 1.57 GiB
    Duration : 47mn 38s
    Overall bit rate mode : Variable
    Overall bit rate : 4 711 Kbps
    Video
    ID : 224 (0xE0)
    Format : MPEG Video
    Format version : Version 2
    Format profile : Main@Main
    Format settings, BVOP : Yes
    Format settings, Matrix : Custom
    Duration : 47mn 38s
    Bit rate mode : Variable
    Bit rate : 4 425 Kbps
    Maximum bit rate : 15.0 Mbps
    Width : 720 pixels
    Height : 576 pixels
    Display aspect ratio : 4:3
    Frame rate : 25.000 fps
    Standard : PAL
    Color space : YUV
    Chroma subsampling : 4:2:0
    Bit depth : 8 bits
    Scan type : Interlaced
    Scan order : Top Field First
    Compression mode : Lossy
    Bits/(Pixel*Frame) : 0.427
    Stream size : 1.47 GiB (94%)
    Audio
    ID : 192 (0xC0)
    Format : MPEG Audio
    Format version : Version 1
    Format profile : Layer 2
    Duration : 47mn 38s
    Bit rate mode : Constant
    Bit rate : 192 Kbps
    Channel(s) : 2 channels
    Sampling rate : 48.0 KHz
    Compression mode : Lossy
    Delay relative to video : 2ms
    Stream size : 65.4 MiB (4%)


    Скриншоты для ознакомления




    Онлайн видео Пиковая дама: Черный обряд (2015) WEB



    Жених с того света (1958) DVBRip
    загрузка...
    Рейтинг →
     (голосов: 1, оценка 4/5, голосовать можно 1 раз )

    Другие торренты по теме:

  • Жених с того света (1958) DVDRip [H.264] скачать через торрент бесплатно


    • Комментарии (0):

      Информация

      Информация

        Посетители, находящиеся в группе Гости, не могут оставлять комментарии в данной новости.

        ↓ Меню




        ↓ Опрос

        Вы добавили сайт в закладки?
        Да
        Нет


        Top 10 за месяц (Фильмы)