.
Авторизация | Регистрация
Хочешь лучшие торренты? Добавь свой email!
Добавить

Торрент скачать бесплатно

» » Фортитьюд / Fortitude (2015) WEB-DLRip / HDTVRip (сезон 1, серия 01-09, 12 из 12) Victory-Films (обновляемая) скачать через торрент бесплатно




    Фортитьюд / Fortitude (2015) WEB-DLRip / HDTVRip (сезон 1, серия 01-09, 12 из 12) Victory-Films (обновляемая) скачать через торрент бесплатно

    Опубликовал: Админ | Дата: 15-10-2015, 10:04 | Просмотров: 76

    Производство: Великобритания/Fifty Fathoms Productions, Sky Atlantic, Tiger Aspect Productions
    Жанр: драма, триллер, детектив
    Режиссер: Сэм Миллер, Хетти Макдональд, Ник Харран

    Актеры
    Кристофер Экклстон, Стэнли Туччи, Сиенна Гиллори, Майкл Гэмбон, Джессика Рэйн, Люк Тредэуэй, Вероника Эчеги, Даррен Бойд, Джонни Харрис, София Гробель, Александра Моэн, Ричард Дормер, Аарон МакКаскер, Фиби Николлс, Чипо Чанг, Майкл Обиора, Николас Пиннок, Бьедн Хлюнюр Харальдссон, Джессика Ганнинг и др.

    Описание

    Fortitude – небольшой городок в Арктике, из-за полного отсутствия преступности считающийся самым безопасным местом на земле. Но вот однажды в городе находят тело убитого британского ученого . Самое интересное в это истории, что об этом Европарламент ничего не знал. Шериф Андерсон и командированный в город детектив полиции Милтон Колдуэлл приступают к расследованию. И чем дальше заходит расследование, тем шире становится список подозреваемых, а поведение шерифа и детектива – все более странным и заставляющим их все меньше доверять друг другу.

    Продолжительность: ~00: 48: 00 серия
    Качество видео: WEB-DLRip/HDTVRip
    Перевод: Двухголосый закадровый, любительский -Victory-Films
    Озвучка: Андрей Питерский Камила Юнусова
    Видео: XviD, 720x400 (16: 9), ~1500 Kbps
    Аудио Ru: MP3, 44.1 KHz, 2 ch, 128 Kbps, CBR - двухголосый закадровый
    Аудио En: MP3, 44.1 KHz, 2 ch, 128 Kbps, CBR - оригинал
    Код:
    General
    Общее
    Полное имя : D:DowloandsВидеоF0rtitude.Victory-FilmsF0rtitude.s01e01.Victory-Films.WEB-DLRip.avi
    Формат : AVI
    Формат/Информация : Audio Video Interleave
    Размер файла : 606 Мбайт
    Продолжительность : 47 м.
    Общий поток : 1770 Кбит/сек
    Программа кодирования : VirtualDubMod 1.5.10.2 (build 2540/release)
    Библиотека кодирования : VirtualDubMod build 2540/release
    Видео
    Идентификатор : 0
    Формат : MPEG-4 Visual
    Профиль формата : Advanced Simple@L5
    Параметр BVOP формата : 2
    Параметр QPel формата : Нет
    Параметр GMC формата : Без точки перехода
    Параметр матрицы формата : Выборочная
    Идентификатор кодека : XVID
    Идентификатор кодека/Подсказка : XviD
    Продолжительность : 47 м.
    Битрейт : 1500 Кбит/сек
    Ширина : 720 пикселей
    Высота : 400 пикселей
    Соотношение сторон : 16:9
    Частота кадров : 25, 000 кадров/сек
    Цветовое пространство : YUV
    Субдискретизация насыщенности : 4:2:0
    Битовая глубина : 8 бит
    Тип развёртки : Прогрессивная
    Метод сжатия : С потерями
    Бит/(Пиксели*Кадры) : 0.208
    Размер потока : 513 Мбайт (85%)
    Библиотека кодирования : XviD 1.2.1 (UTC 2008-12-04)
    Аудио #1
    Идентификатор : 1
    Формат : MPEG Audio
    Версия формата : Version 1
    Профиль формата : Layer 3
    Идентификатор кодека : 55
    Идентификатор кодека/Подсказка : MP3
    Продолжительность : 47 м.
    Вид битрейта : Постоянный
    Битрейт : 128 Кбит/сек
    Каналы : 2 канала
    Частота : 44, 1 КГц
    Метод сжатия : С потерями
    Размер потока : 43, 8 Мбайт (7%)
    Выравнивание : Разделение по промежуткам
    Продолжительность промежутка : 40 мс. (1, 00 видеокадр)
    Время предзагрузки промежутка : 500 мс.
    Аудио #2
    Идентификатор : 2
    Формат : MPEG Audio
    Версия формата : Version 1
    Профиль формата : Layer 3
    Идентификатор кодека : 55
    Идентификатор кодека/Подсказка : MP3
    Продолжительность : 47 м.
    Вид битрейта : Постоянный
    Битрейт : 128 Кбит/сек
    Каналы : 2 канала
    Частота : 44, 1 КГц
    Метод сжатия : С потерями
    Размер потока : 43, 8 Мбайт (7%)
    Выравнивание : Разделение по промежуткам
    Продолжительность промежутка : 40 мс. О таком странном сюжете не догадывалась даже Бейонсе. (1, 00 видеокадр)
    Время предзагрузки промежутка : 500 мс.


    Скриншоты для ознакомления




    Онлайн видео Фортитьюд



    Фортитьюд/Fortitude (2015) WEB-DLRip/HDTVRip (сезон 1, серия 01-09, 12 из 12) Victory-Films (обновляемая)
    загрузка...
    Рейтинг →
     (голосов: 1, оценка 5/5, голосовать можно 1 раз )

    Другие торренты по теме:

  • Фортитьюд / Fortitude (2015) WEB-DLRip, HDTVRip (сезон 1, серия 01-02 из 12) Victory-Films (обновляемая)
  • Фортитьюд / Fortitude (2015) WEB-DLRip (сезон 1, серии 1-2 из 12) AlexFilm (обновляемая)скачать через торрент бесплатно
  • Фортитьюд / Fortitude (2017) HDTVRip (сезон 2, серии 1 из 10) AlexFilm (обновляемая)
  • Фортитьюд / Fortitude (2017) WEBRip [H.264 / 720p-LQ] (сезон 2, серии 1-2 из 10) Victory-Films (обновляемая)
  • Фортитьюд / Fortitude (2017) HDTVRip [H.264 / 720p-LQ] (сезон 2, серии 1-10 из 10) AMS [AD]
  • Фортитьюд / Fortitude (2015-2017) WEB-DL [H.264 / 720p-LQ] (сезоны 1-2, серии 1-22 из 22) Русский репортаж


    • Комментарии (0):

      Информация

      Информация

        Посетители, находящиеся в группе Гости, не могут оставлять комментарии в данной новости.

        ↓ Меню




        ↓ Опрос

        Вы добавили сайт в закладки?
        Да
        Нет


        Top 10 за месяц (Фильмы)