.
Авторизация | Регистрация
Хочешь лучшие торренты? Добавь свой email!
Добавить

Торрент скачать бесплатно

» » Крузо / Crusoe (2008) DVDRip (сезон 1, серии 1-13 из 13) (ТВ3) скачать через торрент бесплатно




    Крузо / Crusoe (2008) DVDRip (сезон 1, серии 1-13 из 13) (ТВ3) скачать через торрент бесплатно

    Опубликовал: Админ | Дата: 14-10-2015, 04:00 | Просмотров: 54

    Производство: США, Великобритания, Канада, ЮАР
    Жанр: драма, приключения
    Режиссер: Двэйн Кларк

    Актеры
    Филлип Винчестер, Анна Уолтон, Тонгаи Чириса, Шон Бин и Сэм Нилл и др.

    Описание

    Это рассказ о Робинзоне Крузо, по легендарному роману Даниеля Дефо. Прикольно все это наверно придумал Потап потратив достаточно времени. Молодой человек оставляет свою любовь, только чтоб отправиться в путешествие, и в результате терпит крушение на тропическом острове, где проживет 28 лет, полностью оторванный от привычной жизни. От сумасшествия его удерживают лишь любовь к жене и дружба с Пятницей. На острове Крузо столкнется с врагами и покорит стихии.

    Продолжительность: Сдвоенная серия 01: 25: 44, остальные ~ 00: 43: 00 серия
    Качество видео: DVDRip
    Перевод: Многоголосый закадровый, профессиональный - ТВ3
    Видео: Xvid, 624x352, (16: 9), ~1000 кбит/с
    Аудио Rus: MP3, 48 kHz, 2 ch, 192 кбит/с |многоголосый закадровый|
    Аудио Eng: MP3, 48 kHz, 2 ch, 128 кбит/с |оригинал|
    Код:

    Общее
    Полное имя : D:перезакачкаКрузоCrusoe.s01e03.DVDRip.Rus(TV3)-Eng.avi
    Формат : AVI
    Формат/Информация : Audio Video Interleave
    Размер файла : 390 Мбайт
    Продолжительность : 42 м.
    Режим общего битрейта : Переменный
    Общий поток : 1289 Кбит/сек
    Программа кодирования : VirtualDubMod 1.5.10.2 (build 2540/release)
    Библиотека кодирования : VirtualDubMod build 2540/release
    Видео
    Идентификатор : 0
    Формат : MPEG-4 Visual
    Профиль формата : Advanced Simple@L5
    Параметр BVOP формата : 2
    Параметр QPel формата : Нет
    Параметр GMC формата : Без точки перехода
    Параметр матрицы формата : Default (H.263)
    Режим смешивания : Сжатый битовый поток
    Идентификатор кодека : XVID
    Идентификатор кодека/Подсказка : XviD
    Продолжительность : 42 м.
    Битрейт : 1012 Кбит/сек
    Ширина : 624 пикселя
    Высота : 352 пикселя
    Соотношение сторон : 16:9
    Частота кадров : 23, 976 кадра/сек
    Цветовое пространство : YUV
    Субдискретизация насыщенности : 4:2:0
    Битовая глубина : 8 бит
    Тип развёртки : Прогрессивная
    Метод сжатия : С потерями
    Бит/(Пиксели*Кадры) : 0.192
    Размер потока : 306 Мбайт (79%)
    Библиотека кодирования : XviD 1.2.1 (UTC 2008-12-04)
    Аудио #1
    Идентификатор : 1
    Формат : MPEG Audio
    Версия формата : Version 1
    Профиль формата : Layer 3
    Режим : Joint stereo
    Расширение режима : MS Stereo
    Идентификатор кодека : 55
    Идентификатор кодека/Подсказка : MP3
    Продолжительность : 42 м.
    Вид битрейта : Постоянный
    Битрейт : 128 Кбит/сек
    Каналы : 2 канала
    Частота : 48, 0 КГц
    Метод сжатия : С потерями
    Размер потока : 38, 7 Мбайт (10%)
    Выравнивание : Соединение по промежуткам
    Продолжительность промежутка : 42 мс. (1, 00 видеокадр)
    Время предзагрузки промежутка : 504 мс.
    Аудио #2
    Идентификатор : 2
    Формат : MPEG Audio
    Версия формата : Version 1
    Профиль формата : Layer 3
    Режим : Joint stereo
    Расширение режима : MS Stereo
    Идентификатор кодека : 55
    Идентификатор кодека/Подсказка : MP3
    Продолжительность : 42 м.
    Вид битрейта : Переменный
    Битрейт : 132 Кбит/сек
    Каналы : 2 канала
    Частота : 48, 0 КГц
    Метод сжатия : С потерями
    Задержка видео : 8 мс.
    Размер потока : 39, 9 Мбайт (10%)
    Выравнивание : Соединение по промежуткам
    Продолжительность промежутка : 24 мс. Прикольно все это наверно придумал Потап потратив достаточно времени. (0, 58 видеокадр)
    Время предзагрузки промежутка : 145 мс.


    Скриншоты для ознакомления




    Онлайн видео Крузо



    Крузо/Crusoe (2008) DVDRip (сезон 1, серии 1-13 из 13) (ТВ3)
    загрузка...
    Рейтинг →
     (голосов: 1, оценка 3/5, голосовать можно 1 раз )

    Другие торренты по теме:

  • Робинзон Крузо: Очень обитаемый остров / Robinson Crusoe (2016) WEB-DL [H.264 / 720p-LQ]
  • Робинзон Крузо: Очень обитаемый остров / Robinson Crusoe (2016) WEB-DL [H.264 / 1080p-LQ]
  • Робинзон Крузо: Очень обитаемый остров / Robinson Crusoe (2016) WEB-DLRip
  • Робинзон Крузо: Очень обитаемый остров / Robinson Crusoe (2016) WEB-DL [1080p] ATV
  • Робинзон Крузо: Очень обитаемый остров / Robinson Crusoe (2016) BDRip [H.264 / 720p-LQ]
  • Робинзон Крузо: Очень обитаемый остров / Robinson Crusoe (2016) BDRip [H.264 / 1080p-LQ]
  • Робинзон Крузо: Очень обитаемый остров / Robinson Crusoe (2016) HDRip
  • Робинзон Крузо: Очень обитаемый остров / Robinson Crusoe (2016) WEB-DLRip [576p] iPad


    • Комментарии (0):

      Информация

      Информация

        Посетители, находящиеся в группе Гости, не могут оставлять комментарии в данной новости.

        ↓ Меню




        ↓ Опрос

        Вы добавили сайт в закладки?
        Да
        Нет


        Top 10 за месяц (Фильмы)