.
Авторизация | Регистрация
Хочешь лучшие торренты? Добавь свой email!
Добавить

Торрент скачать бесплатно

» » Универ. Новая общага (2015) WEB-DLRip (сезон 9, серии 1-3 из 20) (обновляемая) скачать через торрент бесплатно




    Универ. Новая общага (2015) WEB-DLRip (сезон 9, серии 1-3 из 20) (обновляемая) скачать через торрент бесплатно

    Опубликовал: Админ | Дата: 14-10-2015, 04:00 | Просмотров: 60

    Производство: Россия/Комеди Клаб Продакшн, Телеканал ТНТ
    Жанр: комедия
    Режиссер: Константин Смирнов, Максим Зыков, Тимофей Шоталов, Рустам Мосафир

    Актеры
    Станислав Ярушин, Арарат Кещян, Александр Стекольников, Настасья, Самбурская, Анна Кузина, Анна Хилькевич, Елена Валюшкина, Константин Шелягин, Андрей Лебедев, Сергей Пиоро, и др.

    Описание
    Центральной темой новых серий станет переезд Антона и Кристины в своё собственное любовное гнёздышко. Вот только окажется, что свить его не так-то просто, даже если все расходы берёт на себя папа-олигарх Лев Андреевич. Ведь кому-то ближе тихие и зелёные спальные районы При МКАДе, а кому-то подавай огни центра столицы. Майкл, как ни странно, продолжает встречаться с Варей. Всё бы ничего, но теперь, когда Зуев знает об их отношениях, Майклу приходится общаться с начальником не только по рабочим вопросам, но и по домашним. А так как все навыки Зуева связаны с научной деятельностью, в домашних делах он полный профан. Так, что Майкла ждёт прекрасная жизнь на двух работах – сначала собственно на работе, а потом дома: лампочку вкрутить, картошечку пожарить, в магазин сходить, микстурой ректора с ложечки напоить. Красота! Как бы ни старались Маша с Валей жить спокойной студенческой жизнью, радуясь своему странному союзу, – ничего у них не выходит. Прикольно все это наверно придумал Шварценеггер потратив достаточно времени. Маша постоянно переживает за любимого и всячески пытается ему помочь. Только помощь эта не всегда работает так, как хотелось бы. Валя получает повышение на работе, но благодаря стараниям Маши скатывается до мытья унитазов, а потом и вовсе до раздачи флаеров в костюме курицы. Целеустремленная блондинка решает во что бы то ни стало понравиться маме Будейко – и в итоге не только окончательно портит с ней отношения, но и ссорит ее с сыном. Впрочем, как бы там ни было, они вместе, они стараются, они учатся на своих ошибках. А как раз учиться они любят! Ну, как минимум – один из них. Яна Семакина вместе с Иванычем все сбережения будут вкладывать в свою ласточку. Прекрасное ведёрко на колёсиках, которое работает по схеме 5-1: пять часов чинишь, час катаешься. Что касается отношений, то пара становится все более цельной – с общим видением жизни и увлечениями. В частности, Яна несколько раз обворует комнату Иваныча и Киселя, а ее суженный провернет несколько афер с деньгами любимой. Так и живут. Но самое главное - Иваныч познакомится с родителями Яны. Примут ли благовоспитанного гопника в семью? Об этот и о многом другом, вы узнаете - в новом сезон любимого сериалае...

    Продолжительность: ~ 00: 24: 00 серия
    Качество видео: WEB-DLRip
    Видео: XVID, 704x400 (16: 9), ~ 1900 Kbps
    Аудио: MP3, 2 ch, 128 Kbps
    Код:
    General
    Complete name : Univer.Novaya.obschaga.s09.e01.WEB-DLRip.avi
    Format : AVI
    Format/Info : Audio Video Interleave
    File size : 350 MiB
    Duration : 24mn 6s
    Overall bit rate : 2 031 Kbps
    Writing application : VirtualDubMod 1.5.10.3 |www.virtualdub-fr.org|| (build 2550/release)
    Writing library : VirtualDubMod build 2550/release
    Video
    ID : 0
    Format : MPEG-4 Visual
    Format profile : Advanced Simple@L5
    Format settings, BVOP : 1
    Format settings, QPel : No
    Format settings, GMC : No warppoints
    Format settings, Matrix : Custom
    Codec ID : XVID
    Codec ID/Hint : XviD
    Duration : 24mn 6s
    Bit rate : 1 893 Kbps
    Width : 704 pixels
    Height : 400 pixels
    Display aspect ratio : 16:9
    Frame rate : 25.000 fps
    Color space : YUV
    Chroma subsampling : 4:2:0
    Bit depth : 8 bits
    Scan type : Progressive
    Compression mode : Lossy
    Bits/(Pixel*Frame) : 0.269
    Stream size : 327 MiB (93%)
    Writing library : XviD 73
    Audio
    ID : 1
    Format : MPEG Audio
    Format version : Version 1
    Format profile : Layer 3
    Codec ID : 55
    Codec ID/Hint : MP3
    Duration : 24mn 6s
    Bit rate mode : Constant
    Bit rate : 128 Kbps
    Channel(s) : 2 channels
    Sampling rate : 48.0 KHz
    Compression mode : Lossy
    Stream size : 22.1 MiB (6%)
    Alignment : Aligned on interleaves
    Interleave, duration : 40 ms (1.00 video frame)
    Interleave, preload duration : 504 ms
    Writing library : LAME3.99r
    Encoding settings : -m s -V 4 -q 2 -lowpass 17 -b 128
    Автор рипа - ivandubskoj


    Скриншоты для ознакомления




    Онлайн видео Универ. Новая общага (2015) WEB



    Универ. Новая общага (2015) WEB-DLRip (сезон 9, серии 1-3 из 20) (обновляемая)
    загрузка...
    Рейтинг →
     (голосов: 1, оценка 5/5, голосовать можно 1 раз )

    Другие торренты по теме:

  • Универ. Новая общага (2011-2015) SATRip (сезон 1-10, серии 1-199 из 199 + Универ. День открытых дверей + Новогодняя серия 2014) скачать через торрент бесплатно
  • Универ. Новая общага (2011-2016) SATRip (сезон 1-11, серии 1-219 из 219 + Новогодняя серия (2014) + Универ. День открытых дверей)
  • Универ. Новая общага (2011-2017) SATRip / WEB-DLRip (сезон 1-12, серии 1-240 из 240 + Новогодняя серия (2014, 2016) + Универ. День открытых дверей)
  • Универ. Новая общага (2014) WEB-DLRip [H.264] (Сезон 7, серии 121-136) (обновляемая)
  • Универ. Новая общага (2014) WEB-DL [720p] (Сезон 7, серии 121-136) (обновляемая)
  • Универ. Новая общага (2014) WEB-DLRip [H.264 / 720p-LQ] (сезон 7, серии 1-16 из (121-136 из )) (обновляемая)
  • Универ. Новая общага (2015) WEB-DLRip [H.264] (сезон 8, серии 1- из 20) (обновляемая) скачать через торрент бесплатно
  • Универ. Новая общага (2015) WEB-DLRip (сезон 8, серии 1- из 20) (обновляемая) скачать через торрент бесплатно


    • Комментарии (0):

      Информация

      Информация

        Посетители, находящиеся в группе Гости, не могут оставлять комментарии в данной новости.

        ↓ Меню




        ↓ Опрос

        Вы добавили сайт в закладки?
        Да
        Нет


        Top 10 за месяц (Фильмы)