.
Авторизация | Регистрация
Хочешь лучшие торренты? Добавь свой email!
Добавить

Торрент скачать бесплатно

» » Фарго / Fargo (2015) WEB-DLRip (сезон 2, серии 1 из 10) NewStudio (обновляемая) скачать через торрент бесплатно




    Фарго / Fargo (2015) WEB-DLRip (сезон 2, серии 1 из 10) NewStudio (обновляемая) скачать через торрент бесплатно

    Опубликовал: Админ | Дата: 14-10-2015, 04:00 | Просмотров: 113

    Производство: США/MGM Television, FX Productions
    Жанр: триллер, драма, криминал
    Режиссер: Адам Аркин, Кит Гордон

    Актеры
    Патрик Уилсон, Кирстен Данст, Джесси Племонс, Тед Дэнсон, Джин Смарт, Энгус Сэмпсон, Адам Аркин, Брэд Манн, Занн МаКларнон и др.

    Описание

    История второго сезон любимого сериалаа сосредоточится вокруг события, произошедшего зимой 1979 года в Су-Фолс, штат Южная Дакота, о котором часто упоминали на протяжении первого сезон любимого сериалаа, а главными героями станут молодые Лу Солверсон и его жена, мать Молли.

    Продолжительность: ~00: 52: 00 серия
    Качество видео: WEB-DLRip
    Перевод: Многоголосый закадровый, профессиональный -NewStudio
    Автор перевода: Александра Цернант
    Видео: XviD, 720x400 (16: 9), ~1189 kb/s
    Аудио Rus: MPEG Layer 3, 8, 0 kHz, 2 ch, 128 kb/s — многоголосый закадровый
    Аудио Eng: MPEG Layer 3, 48, 0 kHz, 2 ch, 128 kb/s — оригинал
    Общее
    Полное имя : D: Фарго (сезон любимого сериала 2) Fargo (2015) WEB-DLRip - NewStudioFargo.s02e01.WEBDLRip.NewStudio.TV.avi
    Формат : AVI
    Формат/Информация : Audio Video Interleave
    Размер файла : 550 Мбайт
    Продолжительность : 52 м.
    Общий поток : 1459 Кбит/сек
    Программа кодирования : VirtualDubMod 1.5.10.2 (build 2540/release)
    Библиотека кодирования : VirtualDubMod build 2540/release
    Видео
    Идентификатор : 0
    Формат : MPEG-4 Visual
    Профиль формата : Advanced Simple@L5
    Параметр BVOP формата : 2
    Параметр QPel формата : Нет
    Параметр GMC формата : Без точки перехода
    Параметр матрицы формата : Default (MPEG)
    Идентификатор кодека : XVID
    Идентификатор кодека/Подсказка : XviD
    Продолжительность : 52 м.
    Битрейт : 1189 Кбит/сек
    Ширина : 720 пикселей
    Высота : 400 пикселей
    Соотношение сторон : 16: 9
    Частота кадров : 23, 976 кадра/сек
    Цветовое пространство : YUV
    Субдискретизация насыщенности : 4: 2: 0
    Битовая глубина : 8 бит
    Тип развёртки : Прогрессивная
    Метод сжатия : С потерями
    Бит/(Пиксели*Кадры) : 0.172
    Размер потока : 448 Мбайт (81%)
    Библиотека кодирования : XviD 73
    Аудио #1
    Идентификатор : 1
    Формат : MPEG Audio
    Версия формата : Version 1
    Профиль формата : Layer 3
    Режим : Joint stereo
    Расширение режима : MS Stereo
    Идентификатор кодека : 55
    Идентификатор кодека/Подсказка : MP3
    Продолжительность : 52 м.
    Вид битрейта : Постоянный
    Битрейт : 128 Кбит/сек
    Каналы : 2 канала
    Частота : 48, 0 КГц
    Метод сжатия : С потерями
    Размер потока : 48, 3 Мбайт (9%)
    Выравнивание : Соединение по промежуткам
    Продолжительность промежутка : 42 мс. (1, 00 видеокадр)
    Время предзагрузки промежутка : 504 мс.
    Аудио #2
    Идентификатор : 2
    Формат : MPEG Audio
    Версия формата : Version 1
    Профиль формата : Layer 3
    Режим : Joint stereo
    Идентификатор кодека : 55
    Идентификатор кодека/Подсказка : MP3
    Продолжительность : 52 м.
    Вид битрейта : Постоянный
    Битрейт : 128 Кбит/сек
    Каналы : 2 канала
    Частота : 48, 0 КГц
    Метод сжатия : С потерями
    Размер потока : 48, 3 Мбайт (9%)
    Выравнивание : Соединение по промежуткам
    Продолжительность промежутка : 42 мс. (1, 00 видеокадр)
    Время предзагрузки промежутка : 504 мс.
    Библиотека кодирования : LAME3.99r
    Настройки программы : -m j -V 4 -q 2 -lowpass 17 -b 128


    Скриншоты для ознакомления




    Онлайн видео Фарго



    Фарго/Fargo (2015) WEB-DLRip (сезон 2, серии 1 из 10) NewStudio (обновляемая)
    загрузка...
    Рейтинг →
     (голосов: 1, оценка 4/5, голосовать можно 1 раз )

    Другие торренты по теме:

  • Фарго / Fargo (2015) WEB-DL [H.264 / 1080p-LQ] (сезон 2, серии 1 из 10) NewStudio (обновляемая) скачать через торрент бесплатно
  • Фарго / Fargo (2015) WEB-DLRip (сезон 2, серии 1 из 10) LostFilm (обновляемая) скачать через торрент бесплатно
  • Фарго / Fargo (2015) WEB-DL [H.264 / 720p-LQ] (сезон 2, серия 1 из 10) (NewStudio) (обновляемая) скачать через торрент бесплатно
  • Фарго / Fargo (2015) WEB-DL [H.264 / 720p-LQ] (сезон 2, серия 1 из 10) (LostFilm) (обновляемая) скачать через торрент бесплатно
  • Фарго / Fargo (2015) WEB-DL [H.264 / 720p-LQ] (сезон 2, серии 1 из 10) Первый канал (обновляемая) скачать через торрент бесплатно
  • Фарго / Fargo (2015) WEB-DLRip [H.264 / 720p-LQ] (cезон 2, серии 1- из 10) (LostFilm, Кубик в Кубе, Первый канал) (обновляемая) скачать через торрент бесплатно
  • Фарго / Fargo (2015) WEB-DLRip [H.264 / 1080p-LQ] (cезон 2, серии 1-3 из 10) (LostFilm, Кубик в Кубе, Первый канал) (обновляемая) скачать через торрент бесплатно
  • Фарго / Fargo (2015) WEB-DLRip (сезон 2, серии 1-3 из 10) (LostFilm, Кубик в Кубе, Первый канал) (обновляемая) скачать через торрент бесплатно


    • Комментарии (0):

      Информация

      Информация

        Посетители, находящиеся в группе Гости, не могут оставлять комментарии в данной новости.

        ↓ Меню




        ↓ Опрос

        Вы добавили сайт в закладки?
        Да
        Нет


        Top 10 за месяц (Фильмы)