.
Авторизация | Регистрация
Хочешь лучшие торренты? Добавь свой email!
Добавить

Торрент скачать бесплатно

» » Штамм / The Strain (2015) WEB-DL [H.264 / 720p-LQ] (сезон 2, серии 01-13 из 13) AlexFilm (обновляемая) скачать через торрент бесплатно




    Штамм / The Strain (2015) WEB-DL [H.264 / 720p-LQ] (сезон 2, серии 01-13 из 13) AlexFilm (обновляемая) скачать через торрент бесплатно

    Опубликовал: Админ | Дата: 13-10-2015, 04:01 | Просмотров: 223

    Производство: США
    Жанр: ужасы, триллер, драма
    Режиссер: Фил Абрахам, Питер Уэллер, Гильермо дель Торо

    Актеры
    Кори Столл, Миа Маэстро, Дэвид Брэдли, Рихард Заммель, Шон Эстин, Джонатан Хайд, Кевин Дюран, Джек Кеси, Натали Браун, Бен Хайленд и др.

    Описание

    Сериал снят по книгам Гильермо Дель Торо, написанным в соавторстве с Чаком Хоганом.
    Все началось с того, что в аэропорту Нью-Йорка приземляется самолет с мертвыми пассажирами на борту. Команда вирусологов не может выяснить, что стало причиной массовой гибели людей, пока они не оживают. Бороться с новоявленными вампирами вынуждены пожилой профессор Авраам Сетракян, доктор Эфраим Гудуэзер, биохимик Нора Мартинес и крысобой Василий Фет. Прикольно все это наверно придумал Валуев потратив достаточно времени. Каждому из них придется пережить немало ужасных моментов, а некоторым — столкнуться со своими близкими, которые стали безжалостными монстрами.

    Продолжительность: ~00: 58: 00 серия
    Качество видео: WEB-DLRip 720p
    Перевод: Многоголосый закадровый, профессиональный -AlexFilm
    Автор перевода: Константин Кривоногов
    Озвучка: Евгения Тихонова, Михаил Суслов, Андрей Стакионис, Роман Сопко
    Видео: AVC/H.264, 1280x720 (16: 9), ~3823 Kbps
    Аудио Rus: AC-3, 48.0 KHz, 6 ch, 384 Kbps — многоголосый закадровый
    Аудио Eng: AC-3, 48.0 KHz, 6 ch, 384 Kbps — оригинал
    Код:
    Общее
    Уникальный идентификатор : 193089672092066277385535123762426584235 (0x9143B7D83EFAA2D58E03F31B8CD29CAB)
    Полное имя : D:DowloandsВидеоThe Strain - Season 2 (AlexFilm) WEB-DL 720pThe.Strain.s02e01.WEB-DL.720p.Rus.Eng.AlexFilm.mkv
    Формат : Matroska
    Версия формата : Version 4/Version 2
    Размер файла : 1, 90 Гбайт
    Продолжительность : 58 м.
    Общий поток : 4684 Кбит/сек
    Название фильма : The Strain 2x01 @ AlexFilm
    Дата кодирования : UTC 2015-07-28 10:47:05
    Программа кодирования : mkvmerge v7.1.0 (\'Good Love\') 64bit built on Jul 27 2014 13:06:55
    Библиотека кодирования : libebml v1.3.0 + libmatroska v1.4.1
    Видео
    Идентификатор : 1
    Формат : AVC
    Формат/Информация : Advanced Video Codec
    Профиль формата :High@L3.1
    Параметр CABAC формата : Нет
    Параметр ReFrames формата : 2 кадра
    Идентификатор кодека : V_MPEG4/ISO/AVC
    Продолжительность : 58 м.
    Битрейт : 3823 Кбит/сек
    Ширина : 1280 пикселей
    Высота : 720 пикселей
    Соотношение сторон : 16:9
    Режим частоты кадров : Постоянный
    Частота кадров : 23, 976 кадра/сек
    Цветовое пространство : YUV
    Субдискретизация насыщенности : 4:2:0
    Битовая глубина : 8 бит
    Тип развёртки : Прогрессивная
    Бит/(Пиксели*Кадры) : 0.173
    Размер потока : 1, 55 Гбайт (82%)
    Язык : English
    Default : Да
    Forced : Нет
    Цветовой диапазон : Limited
    Основные цвета : BT.709
    Характеристики трансфера : BT.709
    Коэффициенты матрицы : BT.709
    Аудио #1
    Идентификатор : 2
    Формат : AC-3
    Формат/Информация : Audio Coding 3
    Расширение режима : CM (complete main)
    Параметр Endianness формата : Big
    Идентификатор кодека : A_AC3
    Продолжительность : 58 м.
    Вид битрейта : Постоянный
    Битрейт : 384 Кбит/сек
    Каналы : 6 каналов
    Расположение каналов : Front: L C R, Side: L R, LFE
    Частота : 48, 0 КГц
    Метод сжатия : С потерями
    Размер потока : 160 Мбайт (8%)
    Заголовок : DD5.1 AlexFilm
    Язык : Russian
    Default : Да
    Forced : Нет
    Аудио #2
    Идентификатор : 3
    Формат : AC-3
    Формат/Информация : Audio Coding 3
    Расширение режима : CM (complete main)
    Параметр Endianness формата : Big
    Идентификатор кодека : A_AC3
    Продолжительность : 58 м.
    Вид битрейта : Постоянный
    Битрейт : 384 Кбит/сек
    Каналы : 6 каналов
    Расположение каналов : Front: L C R, Side: L R, LFE
    Частота : 48, 0 КГц
    Метод сжатия : С потерями
    Размер потока : 160 Мбайт (8%)
    Заголовок : DD5.1 Original
    Язык : English
    Default : Нет
    Forced : Нет


    Скриншоты для ознакомления




    Онлайн видео Штамм



    Штамм/The Strain (2015) WEB-DL [H.264/720p-LQ] (сезон 2, серии 01-13 из 13) AlexFilm (обновляемая)
    загрузка...
    Рейтинг →
     (голосов: 1, оценка 4/5, голосовать можно 1 раз )

    Другие торренты по теме:

  • Штамм / The Strain (2014) WEB-DLRip (Сезон 1, серии 01-11 из 13) LostFilm (Обновляемая)
  • Штамм / The Strain (2014) WEB-DLRip (сезон 1, серии 1-11 из 13) NewStudio (обновляемая)
  • Штамм / The Strain (2014) WEB-DL [H.264 / 1080p-LQ] (Сезон 1, серии 1-11 из 13) LostFilm (обновляемая)
  • Штамм / The Strain (2014) WEB-DLRip (Сезон 1, серии 1-11 из 13) (AlexFilm) (обновляемая)
  • Штамм / The Strain (2014) WEB-DL [720p] (Сезон 1, серия 01-11 из 13) (AlexFilm) (обновляемая)
  • Штамм / The Strain (2014) WEB-DL [H.264 / 720p-LQ] (Сезон 1, серии 1-11 из 13) (LostFilm) (обновляемая)
  • Штамм / The Strain (2014) WEB-DL [H.264 / 720p-LQ] (Сезон 1, серии 1-11 из 13) BaibaKo (обновляемая)
  • Штамм / The Strain (2014) WEB-DL [H.264 / 1080p-LQ] (Сезон 1, серии 1-11 из 13) BaibaKo (обновляемая)


    • Комментарии (0):

      Информация

      Информация

        Посетители, находящиеся в группе Гости, не могут оставлять комментарии в данной новости.

        ↓ Меню




        ↓ Опрос

        Вы добавили сайт в закладки?
        Да
        Нет


        Top 10 за месяц (Фильмы)