.
Авторизация | Регистрация
Хочешь лучшие торренты? Добавь свой email!
Добавить

Торрент скачать бесплатно

» » Калигула / Caligola (1979) BDRip [Remastered] скачать через торрент бесплатно




    Калигула / Caligola (1979) BDRip [Remastered] скачать через торрент бесплатно

    Опубликовал: Админ | Дата: 13-10-2015, 04:00 | Просмотров: 91

    Производство: Италия, США
    Жанр: Эротика, Драма
    Режиссер: Тинто Брасс, Боб Гуччионе, Джанкарло Луи

    Актеры
    Малкольм Макдауэлл, Тереза Энн Савой, Гуидо Маннари, Джон Гилгуд, Питер О`Тул, Джанкарло Бадесси, Бруно Бриве, Адриана Асти, Леопольдо Триесте, Паоло Боначелли, Джон Стайнер, Мирелла Д`Анджело, Хелен Миррен, Rick Parets, Паула Митчел, Озириде Певарелло, Донато Пласидо, Аннека Ди Лоренцо, Лори Вагнер, Патрик Аллен, Жерардо Амато

    Описание

    Эпический фильм о правлении древнеримского императора Калигулы, вошедшего в историю беспримерной жестокостью, коварством и пороками. Скандально выставлены на показ все подробности жестокого и хлещет как из ведра извращенного царствования Калигулы, бесстыдное сексуальное влечение к родной сестре, женитьба на самой развратной из римских проституток, избирательно утонченные в своем зверстве репрессии против тех, кто мог бы встать у него на пути...

    Рейтинг MPAA: R лицамдо 17 лет обязательно присутствие взрослого
    Возраст: 18+ зрителям, достигшим 18 лет
    Продолжительность: 02: 35: 29
    Качество видео: BDRip
    Перевод: Двухголосный закадровый, профессиональный (П.Гланц и И.Королёва)
    Видео: Xvid, 720x384 (1.88: 1), ~1805 kbps avg
    Аудио: AC3, 2 ch, 192 kbps
    Код:

    General
    Complete name : D:Caligula.1979.avi
    Format : AVI
    Format/Info : Audio Video Interleave
    Format profile : OpenDML
    File size : 2.18 GiB
    Duration : 2h 35mn
    Overall bit rate : 2 009 Kbps
    Writing application : VirtualDubMod 1.5.10.3 |www.virtualdub-fr.org|| (build 2550/release)
    Writing library : VirtualDubMod build 2550/release
    Video
    ID : 0
    Format : MPEG-4 Visual
    Format profile : Advanced Simple@L5
    Format settings, BVOP : 1
    Format settings, QPel : No
    Format settings, GMC : No warppoints
    Format settings, Matrix : Default (MPEG)
    Codec ID : XVID
    Codec ID/Hint : XviD
    Duration : 2h 35mn
    Bit rate : 1 805 Kbps
    Width : 720 pixels
    Height : 384 pixels
    Display aspect ratio : 1.85:1
    Frame rate : 24.000 fps
    Color space : YUV
    Chroma subsampling : 4:2:0
    Bit depth : 8 bits
    Scan type : Progressive
    Compression mode : Lossy
    Bits/(Pixel*Frame) : 0.272
    Stream size : 1.96 GiB (90%)
    Writing library : XviD 1.2.1 (UTC 2008-12-04)
    Audio
    ID : 1
    Format : AC-3
    Format/Info : Audio Coding 3
    Mode extension : CM (complete main)
    Format settings, Endianness : Big
    Codec ID : 2000
    Duration : 2h 35mn
    Bit rate mode : Constant
    Bit rate : 192 Kbps
    Channel(s) : 6 channels
    Channel positions : Front: L C R, Side: L R, LFE
    Sampling rate : 48.0 KHz
    Bit depth : 16 bits
    Compression mode : Lossy
    Stream size : 214 MiB (10%)
    Alignment : Split accross interleaves
    Interleave, duration : 42 ms (1.00 video frame)
    Interleave, preload duration : 500 ms


    Скриншоты для ознакомления




    Онлайн видео Калигула



    Калигула/Caligola (1979) BDRip [Remastered]
    загрузка...
    Рейтинг →
     (голосов: 1, оценка 4/5, голосовать можно 1 раз )

    Другие торренты по теме:

  • Калигула / Caligola (1979) BDRemux [H.264 / 1080p] [The Imperial Edition] скачать через торрент бесплатно
  • Калигула / Caligola (1979) BDRip [H.264 / 720p] [Extended Uncensored] скачать через торрент бесплатно


    • Комментарии (0):

      Информация

      Информация

        Посетители, находящиеся в группе Гости, не могут оставлять комментарии в данной новости.

        ↓ Меню




        ↓ Опрос

        Вы добавили сайт в закладки?
        Да
        Нет


        Top 10 за месяц (Фильмы)