.
Авторизация | Регистрация
Хочешь лучшие торренты? Добавь свой email!
Добавить

Торрент скачать бесплатно

» » Дневники вампира / The Vampire Diaries (2015) WEB-DLRip (сезон 7, серии 1 из ) LostFilm (обновляемая) скачать через торрент бесплатно




    Дневники вампира / The Vampire Diaries (2015) WEB-DLRip (сезон 7, серии 1 из ) LostFilm (обновляемая) скачать через торрент бесплатно

    Опубликовал: Админ | Дата: 11-10-2015, 04:09 | Просмотров: 48

    Производство: США/Alloy Entertainment, Bonanza Productions, Warner Bros. О таком странном сюжете не догадывалась даже Юлия Володимировна. Television
    Жанр: ужасы, фэнтези, драма
    Режиссер: Крис Грисмер, Джошуа Батлер, Маркос Сига

    Актеры
    Пол Уэсли, Иен Сомерхолдер, Катерина Грэхэм, Кэндис Аккола, Зак Рериг, Нина Добрев, Стивен Р. МакКуин, Майкл Тревино, Мэттью Дэвис и др.

    Описание

    Продолжение рейтинговой американской мистической драмы от телеканала The CW.
    Изначально сюжет сериала был закручен вокруг Елены Гилберт — девушки, за любовь которой сражались два брата-вампира Дэймон и Стефан. Стефан уже сотни лет мирно сосуществует с людьми, а Дэймон — воплощение настоящего вампирского зла и кровожадности.

    Продолжительность: ~00: 42: 00 серия
    Качество видео: WEB-DLRip
    Перевод: Многоголосый закадровый, профессиональный -LostFilm
    Видео: XviD, 720x400 (16: 9), ~1600 kb/s
    Аудио Rus: MPEG Layer 3, 48, 0 kHz, 2 ch, 192 kb/s — многоголосый закадровый
    Общее
    Полное имя : D: Дневники вампира (сезон любимого сериала 7) The Vampire Diaries (2015) WEB-DLRip - LostFilmThe.Vampire.Diaries.S07E01.rus.LostFilm.TV.avi
    Формат : AVI
    Формат/Информация : Audio Video Interleave
    Размер файла : 548 Мбайт
    Продолжительность : 42 м.
    Режим общего битрейта : Переменный
    Общий поток : 1800 Кбит/сек
    Программа кодирования : Nandub v1.0rc2
    Библиотека кодирования : Nandub build 1853/release
    Видео
    Идентификатор : 0
    Формат : MPEG-4 Visual
    Профиль формата : Advanced Simple@L5
    Параметр BVOP формата : Нет
    Параметр QPel формата : Нет
    Параметр GMC формата : Без точки перехода
    Параметр матрицы формата : Default (H.263)
    Идентификатор кодека : XVID
    Идентификатор кодека/Подсказка : XviD
    Продолжительность : 42 м.
    Битрейт : 1598 Кбит/сек
    Ширина : 720 пикселей
    Высота : 400 пикселей
    Соотношение сторон : 16: 9
    Частота кадров : 23, 976 кадра/сек
    Цветовое пространство : YUV
    Субдискретизация насыщенности : 4: 2: 0
    Битовая глубина : 8 бит
    Тип развёртки : Прогрессивная
    Метод сжатия : С потерями
    Бит/(Пиксели*Кадры) : 0.231
    Размер потока : 487 Мбайт (89%)
    Библиотека кодирования : XviD 1.2.1 (UTC 2008-12-04)
    Аудио
    Идентификатор : 1
    Формат : MPEG Audio
    Версия формата : Version 1
    Профиль формата : Layer 3
    Режим : Joint stereo
    Расширение режима : MS Stereo
    Идентификатор кодека : 55
    Идентификатор кодека/Подсказка : MP3
    Продолжительность : 42 м.
    Вид битрейта : Переменный
    Битрейт : 192 Кбит/сек
    Каналы : 2 канала
    Частота : 48, 0 КГц
    Метод сжатия : С потерями
    Размер потока : 57, 5 Мбайт (10%)
    Выравнивание : Соединение по промежуткам
    Продолжительность промежутка : 24 мс. (0, 58 видеокадр)
    Время предзагрузки промежутка : 476 мс.
    Библиотека кодирования : LAME3.97b
    Настройки программы : -m j -V 4 -q 3 -lowpass 18.6 --abr 192


    Скриншоты для ознакомления




    Онлайн видео Дневники вампира



    Дневники вампира/The Vampire Diaries (2015) WEB-DLRip (сезон 7, серии 1 из ) LostFilm (обновляемая)
    загрузка...
    Рейтинг →
     (голосов: 1, оценка 4/5, голосовать можно 1 раз )

    Другие торренты по теме:

  • Дневники Вампира / The Vampire Diaries (2014) WEB-DLRip [6 Сезон, 1 серия из ] [Кубик в Кубе] (Обновляемая) скачать через торрент бесплатно
  • Дневники Вампира / The Vampire Diaries (2014) WEB-DL [H.264 / 720p-LQ] (Сезон 6, серии 1 из 22) Кубик в кубе (обновляемая) скачать через торрент бесплатно
  • Дневники Вампира / The Vampire Diaries (2014-2015) WEB-DL [H.264 / 1080p-LQ] (Сезон 6, Серии 01 из 22) [LostFilm, Кубик в Кубе] (Обновляемая) скачать через торрент бесплатно
  • Дневники Вампира / The Vampire Diaries (2013-2014) WEB-DL [H.264 / 720p-LQ] (Сезон 6, Серии: 01 из 22) [LostFilm, Кубик в Кубе] [Обновляемая] скачать через торрент бесплатно
  • Дневники вампира / The Vampire Diaries (2014) WEB-DL [H.264 / 720p-LQ] (сезон 6, серии 1 из ) LostFilm (Обновляемая) скачать через торрент бесплатно
  • Дневники вампира / The Vampire Diaries (2014) WEB-DLRip (сезон 6, серии 1 из ) LostFilm (Обновляемая) скачать через торрент бесплатно
  • Дневники вампира / The Vampire Diaries (2014) WEB-DLRip (сезон 6, серии 1-18 из 22) LostFilm (обновляемая) скачать через торрент бесплатно
  • Дневники вампира / The Vampire Diaries (2014) WEB-DL [H.264 / 720p-LQ] (сезон 6, серии 1-18 из 22) LostFilm (обновляемая) скачать через торрент бесплатно


    • Комментарии (0):

      Информация

      Информация

        Посетители, находящиеся в группе Гости, не могут оставлять комментарии в данной новости.

        ↓ Меню




        ↓ Опрос

        Вы добавили сайт в закладки?
        Да
        Нет


        Top 10 за месяц (Фильмы)