.
Авторизация | Регистрация
Хочешь лучшие торренты? Добавь свой email!
Добавить

Торрент скачать бесплатно

» » На зов скорби / Les Revenants (2015) HDTVRip (сезон 2, серия 1 из 8) (AlexFilm) (обновляемая) скачать через торрент бесплатно




    На зов скорби / Les Revenants (2015) HDTVRip (сезон 2, серия 1 из 8) (AlexFilm) (обновляемая) скачать через торрент бесплатно

    Опубликовал: Админ | Дата: 10-10-2015, 04:00 | Просмотров: 94

    Производство: Франция
    Жанр: триллер, драма
    Режиссер: Фабрис Гобер, Фридерик Мерму

    Актеры
    Фредерик Пьеро, Самир Гесми, Гийом Гуи, Жан-Франсуа Сивадье, Аликс Пуасон, Дженна Тиам, Анн Косиньи, Клотильда Эсме, Селин Саллетт, Грегори Гадебуа, Пьер Перрье, Яра Пиларц, Сванн Намботин, Ана Жирардо и др.

    Описание

    В небольшой альпийской деревушке растерянные люди пытаются вернуться домой. Они ещё не знают, что мертвы уже несколько лет. Вернувшиеся полны решимости вернуть себе место в мире живых. Но, похоже, воскресли не только мирные жители. Их возврат совпадает с серией жестоких убийств, похожих на дело рук серийного убийцы из прошлого. И на этом нарушения в естественном ходе вещей не заканчиваются...

    Релиз от: AlexFilm
    Продолжительность: ~ 00: 52: 00 серия
    Качество видео: HDTVRip
    Перевод: Профессиональный многоголосый закадровый -AlexFilm
    Озвучка: Анастасия Флигина, Татьяна Манетина, Сергей Пономарёв, Александр Дасевич, Михаил Суслов
    Автор перевода: Vipere
    Формат: AVI
    Видео: XviD, 720x400 (16: 9), 23.976 fps, ~1394 Kbps
    Аудио #1: MP3, 128 kbps, 2 ch, 48 kHz - русский многоголосый закадровый
    Аудио #2: MP3, 128 kbps, 2 ch, 48 kHz - французский
    Код:
    Общее
    Les Revenants - На зов скорби. Сезон 2. AlexFilmLes.Revenants.s02e01.HDTVRip.AlexFilm.avi
    Формат : AVI
    Формат/Информация : Audio Video Interleave
    Размер файла : 612 Мбайт
    Продолжительность : 51 м.
    Общий поток : 1664 Кбит/сек
    Программа кодирования : VirtualDubModRus 1.5.10.2 (build 2542/release)
    Библиотека кодирования : VirtualDubMod build 2542/release
    Видео
    Идентификатор : 0
    Формат : MPEG-4 Visual
    Профиль формата : Advanced Simple@L5
    Параметр BVOP формата : Нет
    Параметр QPel формата : Нет
    Параметр GMC формата : Без точки перехода
    Параметр матрицы формата : Default (H.263)
    Идентификатор кодека : XVID
    Идентификатор кодека/Подсказка : XviD
    Продолжительность : 51 м.
    Битрейт : 1394 Кбит/сек
    Ширина : 720 пикселей
    Высота : 400 пикселей
    Соотношение сторон : 16:9
    Частота кадров : 23, 976 кадра/сек
    Цветовое пространство : YUV
    Субдискретизация насыщенности : 4:2:0
    Битовая глубина : 8 бит
    Тип развёртки : Прогрессивная
    Метод сжатия : С потерями
    Бит/(Пиксели*Кадры) : 0.202
    Размер потока : 513 Мбайт (84%)
    Библиотека кодирования : XviD 73
    Аудио #1
    Идентификатор : 1
    Формат : MPEG Audio
    Версия формата : Version 1
    Профиль формата : Layer 3
    Режим : Joint stereo
    Расширение режима : MS Stereo
    Идентификатор кодека : 55
    Идентификатор кодека/Подсказка : MP3
    Продолжительность : 51 м.
    Вид битрейта : Постоянный
    Битрейт : 128 Кбит/сек
    Каналы : 2 канала
    Частота : 48, 0 КГц
    Метод сжатия : С потерями
    Размер потока : 47, 1 Мбайт (8%)
    Выравнивание : Соединение по промежуткам
    Продолжительность промежутка : 42 мс. (1, 00 видеокадр)
    Время предзагрузки промежутка : 504 мс.
    Аудио #2
    Идентификатор : 2
    Формат : MPEG Audio
    Версия формата : Version 1
    Профиль формата : Layer 3
    Режим : Joint stereo
    Расширение режима : MS Stereo
    Идентификатор кодека : 55
    Идентификатор кодека/Подсказка : MP3
    Продолжительность : 51 м.
    Вид битрейта : Постоянный
    Битрейт : 128 Кбит/сек
    Каналы : 2 канала
    Частота : 48, 0 КГц
    Метод сжатия : С потерями
    Размер потока : 47, 1 Мбайт (8%)
    Выравнивание : Соединение по промежуткам
    Продолжительность промежутка : 42 мс. (1, 00 видеокадр)
    Время предзагрузки промежутка : 504 мс.


    Скриншоты для ознакомления




    Онлайн видео На зов скорби



    На зов скорби/Les Revenants (2015) HDTVRip (сезон 2, серия 1 из 8) (AlexFilm) (обновляемая)
    загрузка...
    Рейтинг →
     (голосов: 1, оценка 5/5, голосовать можно 1 раз )

    Другие торренты по теме:

  • На зов скорби / Les Revenants (2015) HDTV [H.264 / 720p-LQ] (сезон 2, серия 1 из 8) (AlexFilm) (обновляемая) скачать через торрент бесплатно


    • Комментарии (0):

      Информация

      Информация

        Посетители, находящиеся в группе Гости, не могут оставлять комментарии в данной новости.

        ↓ Меню




        ↓ Опрос

        Вы добавили сайт в закладки?
        Да
        Нет


        Top 10 за месяц (Фильмы)