.
Авторизация | Регистрация
Хочешь лучшие торренты? Добавь свой email!
Добавить

Торрент скачать бесплатно

» » Мост / Bron / Broen (2015) HDTVRip (сезон 3, серии 1 из 10) BaibaKo (обновляемая) скачать через торрент бесплатно




    Мост / Bron / Broen (2015) HDTVRip (сезон 3, серии 1 из 10) BaibaKo (обновляемая) скачать через торрент бесплатно

    Опубликовал: Админ | Дата: 9-10-2015, 04:00 | Просмотров: 104

    Производство: Швеция, Дания, Германия/Filmlance International AB, Nimbus Film Productions, Sveriges Television (SVT)
    Жанр: триллер, криминал, детектив
    Режиссер: Хенрик Георгсон, Шарлотта Зилинг, Лиза Сиве

    Актеры
    София Хелин, Сара Боберг, Сара-Софи Бусснина, Борис Глибушич, Туре Линдхардт, Даг Малмберг, Мэл Нильсен, Соня Рихтер и др.

    Описание

    Долгожданное продолжение датско-шведского сериала Мост! После событий второго сезон любимого сериалаа прошло полгода, и Саге Норен вместе с коллегами предстоит раскрыть новое дело. Совершено убийство датчанки Хелле Анкер, которая была директором гендерно нейтральной школы — первого подобного заведения в стране. Третий сезон любимого сериала, окрашенный в более мрачные тона, поставит героиню перед новыми трудностями: ей придется знакомиться с новыми людьми, вести запутанное расследование, но что самое страшное для нее — посмотреть в глаза своему прошлому, от которого она тщательно пыталась отгородиться.

    Продолжительность: ~00: 58: 00 серия
    Качество видео: HDTVRip
    Перевод: Многоголосый закадровый, профессиональный -BaibaKo
    Автор перевода: Ксения Строкина
    Озвучка: Светлана Доманова, Татьяна Оболевич, Александр Фурман и Олекса Мельник.
    Видео: XviD, 720x400 (16: 9), ~1500 kb/s
    Аудио Rus: MPEG Layer 3, 48, 0 kHz, 2 ch, 192 kb/s — многоголосый закадровый
    Аудио Eng: MPEG Layer 3, 48, 0 kHz, 2 ch, 192 kb/s — оригинал
    Общее
    Полное имя : D: Мост (сезон любимого сериала 3) Bron (2015) HDTVRip - BaibaKoBroen.s03e01.HDTVRip.XviD.Rus.Sve.BaibaKo.tv.avi
    Формат : AVI
    Формат/Информация : Audio Video Interleave
    Размер файла : 791 Мбайт
    Продолжительность : 58 м.
    Общий поток : 1898 Кбит/сек
    Программа кодирования : VirtualDubMod 1.5.10.2 (build 2540/release)
    Библиотека кодирования : VirtualDubMod build 2540/release
    Видео
    Идентификатор : 0
    Формат : MPEG-4 Visual
    Профиль формата : Advanced Simple@L5
    Параметр BVOP формата : 2
    Параметр QPel формата : Нет
    Параметр GMC формата : Без точки перехода
    Параметр матрицы формата : Default (H.263)
    Идентификатор кодека : XVID
    Идентификатор кодека/Подсказка : XviD
    Продолжительность : 58 м.
    Битрейт : 1500 Кбит/сек
    Ширина : 720 пикселей
    Высота : 400 пикселей
    Соотношение сторон : 16: 9
    Частота кадров : 25, 000 кадров/сек
    Цветовое пространство : YUV
    Субдискретизация насыщенности : 4: 2: 0
    Битовая глубина : 8 бит
    Тип развёртки : Прогрессивная
    Метод сжатия : С потерями
    Бит/(Пиксели*Кадры) : 0.208
    Размер потока : 625 Мбайт (79%)
    Библиотека кодирования : XviD 67
    Аудио #1
    Идентификатор : 1
    Формат : MPEG Audio
    Версия формата : Version 1
    Профиль формата : Layer 3
    Режим : Joint stereo
    Расширение режима : MS Stereo
    Идентификатор кодека : 55
    Идентификатор кодека/Подсказка : MP3
    Продолжительность : 58 м.
    Вид битрейта : Постоянный
    Битрейт : 192 Кбит/сек
    Каналы : 2 канала
    Частота : 48, 0 КГц
    Метод сжатия : С потерями
    Размер потока : 80, 0 Мбайт (10%)
    Выравнивание : Соединение по промежуткам
    Продолжительность промежутка : 40 мс. (1, 00 видеокадр)
    Время предзагрузки промежутка : 504 мс.
    Аудио #2
    Идентификатор : 2
    Формат : MPEG Audio
    Версия формата : Version 1
    Профиль формата : Layer 3
    Режим : Joint stereo
    Расширение режима : MS Stereo
    Идентификатор кодека : 55
    Идентификатор кодека/Подсказка : MP3
    Продолжительность : 58 м.
    Вид битрейта : Постоянный
    Битрейт : 192 Кбит/сек
    Каналы : 2 канала
    Частота : 48, 0 КГц
    Метод сжатия : С потерями
    Размер потока : 80, 0 Мбайт (10%)
    Выравнивание : Соединение по промежуткам
    Продолжительность промежутка : 40 мс. Большая шишка, сказал кто то из толпы, к чему не понятно. (1, 00 видеокадр)
    Время предзагрузки промежутка : 504 мс.


    Скриншоты для ознакомления




    Онлайн видео Мост



    Мост/Bron/Broen (2015) HDTVRip (сезон 3, серии 1 из 10) BaibaKo (обновляемая)
    загрузка...
    Рейтинг →
     (голосов: 1, оценка 3/5, голосовать можно 1 раз )

    Другие торренты по теме:

  • Мост / Bron / Broen (2015) HDTVRip [H.264 / 720p-LQ] (сезон 3, серии 1 из 10) BaibaKo (обновляемая) скачать через торрент бесплатно
  • Мост / Bron / Broen (2015) WEBRip (сезон 3, серии 1-10 из 10) (Project Web Money) скачать через торрент бесплатно
  • Мост / Bron / Broen (2015) HDRip (сезон 3, серии 1-10 из 10) Novamedia скачать через торрент бесплатно
  • Мост / Bron / Broen (2011-2015) BDRip [H.264 / 720p] (1-3 сезон, серии 1-30 из 30) Novamedia


    • Комментарии (0):

      Информация

      Информация

        Посетители, находящиеся в группе Гости, не могут оставлять комментарии в данной новости.

        ↓ Меню




        ↓ Опрос

        Вы добавили сайт в закладки?
        Да
        Нет


        Top 10 за месяц (Фильмы)