.
Авторизация | Регистрация
Хочешь лучшие торренты? Добавь свой email!
Добавить

Торрент скачать бесплатно

» » Родина / Чужой среди своих / Homeland (2015) WEB-DLRip (сезон 5, серии 1 из 12) LostFilm (обновляемая) скачать через торрент бесплатно




    Родина / Чужой среди своих / Homeland (2015) WEB-DLRip (сезон 5, серии 1 из 12) LostFilm (обновляемая) скачать через торрент бесплатно

    Опубликовал: Админ | Дата: 7-10-2015, 04:00 | Просмотров: 123

    Производство: США/Teakwood Lane Productions, Cherry Pie Productions, Keshet Broadcasting
    Жанр: триллер, драма, детектив
    Режиссер: Лесли Линка Глаттер, Майкл Куэста, Дэниэл Эттиэс

    Актеры
    Клэр Дэйнс, Дэмиэн Льюис, Мэнди Пэтинкин, Морена Баккарин, Дэвид Хэрвуд, Руперт Френд, Джексон Пэйс, Морган Сэйлор, Ф. Мюррэй Абрахам, Диего Клаттенхофф и др.

    Описание

    Главный герой сериала — сержант ВМФ США, который после восьмилетнего плена вернулся на родину. После возвращения он начинает себя вести подозрительно. Что бы во всём разобраться, за дело берётся офицер ЦРУ, которая обвиняет сержанта в предательстве и причастности к целой серии террористических актов против Америки.

    Продолжительность: ~00: 50: 00 серия
    Качество видео: WEB-DLRip
    Перевод: Многоголосый закадровый, профессиональный -LostFilm
    Видео: XviD, 720х400 (16: 9), ~1400 kb/s
    Аудио Rus: MPEG Layer 3, 48, 0 kHz, 2 ch, 128 kb/s - многоголосый закадровый
    Аудио Eng: MPEG Layer 3, 48, 0 kHz, 2 ch, 128 kb/s - оригинал
    Общее
    Полное имя : D: Родина (сезон любимого сериала 5) Homeland (2015) WEB-DLRip - LostFilmHomeland.S05E01.XviD.LostFilm.qqss44.avi
    Формат : AVI
    Формат/Информация : Audio Video Interleave
    Размер файла : 600 Мбайт
    Продолжительность : 50 м.
    Общий поток : 1673 Кбит/сек
    Программа кодирования : VirtualDubMod 1.5.10.3 |www.virtualdub-fr.org|| (build 2550/release)
    Библиотека кодирования : VirtualDubMod build 2550/release
    Видео
    Идентификатор : 0
    Формат : MPEG-4 Visual
    Профиль формата : Advanced Simple@L5
    Параметр BVOP формата : 2
    Параметр QPel формата : Нет
    Параметр GMC формата : Без точки перехода
    Параметр матрицы формата : Default (MPEG)
    Идентификатор кодека : XVID
    Идентификатор кодека/Подсказка : XviD
    Продолжительность : 50 м.
    Битрейт : 1403 Кбит/сек
    Ширина : 720 пикселей
    Высота : 400 пикселей
    Соотношение сторон : 16: 9
    Частота кадров : 23, 976 кадра/сек
    Цветовое пространство : YUV
    Субдискретизация насыщенности : 4: 2: 0
    Битовая глубина : 8 бит
    Тип развёртки : Прогрессивная
    Метод сжатия : С потерями
    Бит/(Пиксели*Кадры) : 0.203
    Размер потока : 503 Мбайт (84%)
    Библиотека кодирования : XviD 73
    Аудио #1
    Идентификатор : 1
    Формат : MPEG Audio
    Версия формата : Version 1
    Профиль формата : Layer 3
    Режим : Joint stereo
    Расширение режима : MS Stereo
    Идентификатор кодека : 55
    Идентификатор кодека/Подсказка : MP3
    Продолжительность : 50 м.
    Вид битрейта : Постоянный
    Битрейт : 128 Кбит/сек
    Каналы : 2 канала
    Частота : 48, 0 КГц
    Метод сжатия : С потерями
    Размер потока : 45, 9 Мбайт (8%)
    Выравнивание : Соединение по промежуткам
    Продолжительность промежутка : 42 мс. (1, 00 видеокадр)
    Время предзагрузки промежутка : 504 мс.
    Аудио #2
    Идентификатор : 2
    Формат : MPEG Audio
    Версия формата : Version 1
    Профиль формата : Layer 3
    Режим : Joint stereo
    Идентификатор кодека : 55
    Идентификатор кодека/Подсказка : MP3
    Продолжительность : 50 м.
    Вид битрейта : Постоянный
    Битрейт : 128 Кбит/сек
    Каналы : 2 канала
    Частота : 48, 0 КГц
    Метод сжатия : С потерями
    Размер потока : 45, 9 Мбайт (8%)
    Выравнивание : Соединение по промежуткам
    Продолжительность промежутка : 42 мс. (1, 00 видеокадр)
    Время предзагрузки промежутка : 504 мс.


    Скриншоты для ознакомления




    Онлайн видео Родина



    Родина/Чужой среди своих/Homeland (2015) WEB-DLRip (сезон 5, серии 1 из 12) LostFilm (обновляемая)
    загрузка...
    Рейтинг →
     (голосов: 1, оценка 5/5, голосовать можно 1 раз )

    Другие торренты по теме:

  • Родина / Чужой среди своих / Homeland (2014) WEB-DL [H.264 / 720p-LQ] (сезон 4, серии 01-02 из 12) (Пифагор) (обновляемая)
  • Родина / Чужой среди своих / Homeland (2014) WEB-DLRip (сезон 4, серии 1 из 12) LostFilm (Обновляемая)
  • Родина / Чужой среди своих / Homeland (2014) WEB-DL [H.264 / 720p-LQ] (сезон 4, серии 1 из 12) LostFilm (Обновляемая)
  • Родина / Чужой среди своих / Homeland (2015) WEB-DL [H.264 / 720p-LQ] (сезон 5, серии 1 из 12) Пифагор (обновляемая) скачать через торрент бесплатно
  • Родина / Чужой среди своих / Homeland (2015) WEB-DLRip (сезон 5, серии 1 из 12) Пифагор (обновляемая) скачать через торрент бесплатно
  • Родина / Чужой среди своих / Homeland (2015) WEB-DL [H.264] (сезон 5, серии 1-8 из 12) LostFilm [MP4|1280x720] скачать через торрент бесплатно
  • Родина / Чужой среди своих / Homeland (2017) WEB-DLRip (сезон 6, серия 1 из 12) Пифагор (обновляемая)
  • Родина / Чужой среди своих / Homeland (2017) WEBRip [H.264 / 720p] (сезон 6, серии 1 из 12) LostFilm (обновляемая)


    • Комментарии (0):

      Информация

      Информация

        Посетители, находящиеся в группе Гости, не могут оставлять комментарии в данной новости.

        ↓ Меню




        ↓ Опрос

        Вы добавили сайт в закладки?
        Да
        Нет


        Top 10 за месяц (Фильмы)