.
Авторизация | Регистрация
Хочешь лучшие торренты? Добавь свой email!
Добавить

Торрент скачать бесплатно

» » Однажды в Сказке / В Некотором Царстве / Once Upon a Time (2015) WEB-DLRip (сезон 5, серии 1 из 23) (To4ka) (обновляемая) скачать через торрент бесплатно




    Однажды в Сказке / В Некотором Царстве / Once Upon a Time (2015) WEB-DLRip (сезон 5, серии 1 из 23) (To4ka) (обновляемая) скачать через торрент бесплатно

    Опубликовал: Админ | Дата: 6-10-2015, 04:02 | Просмотров: 85

    Производство: США
    Жанр: фэнтези, мелодрама, приключения
    Режиссер: Дин Уайт, Ральф Хемекер, Дэвид Соломон

    Актеры
    Дженнифер Моррисон, Джиннифер Гудвин, Лана Парийя, Джошуа Даллас, Джаред Гилмор, Роберт Карлайл, Рафаэль Сбардж, Меган Ори, Эйон Бэйли, Беверли Эллиотт и др.

    Описание

    Сюжет фэнтези разворачивается в двух мирах — современном и сказочном. Беззаботная жизнь 28-летней Эммы Свон меняется, когда ее 10-летний сын Генри, от которого она отказалась много лет назад, находит Эмму и объявляет, что она является дочерью Прекрасного Принца и Белоснежки. Само собой разумеется, у мальчишки нет никаких сомнений, что параллельно нашему существует альтернативный сказочный мир — город Сторибрук, в котором в итоге оказывается Эмма. Постепенно героиня привязывается к необычному мальчику и странному городу, жители которого забыли, кем они были в прошлом. А все из-за проклятия Злой Королевы (по совместительству приемной матери Генри), с помощью которого колдунья остановила время в сказочной стране. Однако стоит протянуть руку — и сказка оживет. Эпическая битва за будущее двух миров начинается, но, чтобы одержать победу, Эмме придется принять свою судьбу…

    Продолжительность: ~ 00: 43: 00 серия
    Качество видео: WEB-DLRip
    Перевод: Многоголосый закадровый, любительский - To4ka
    Автор перевода: To4kaTranslate
    Видео: Xvid, 720x400 (16: 9), ~1200 kbps
    Аудио #1 Rus : MP3, 2 ch, 48.0 KHz, 128 Kbps - многоголосый закадровый
    Аудио #2 Eng: MP3, 2 ch, 48.0 KHz, 128 Kbps - оригинал
    Код:

    General
    Complete name : D:ЗагрузкиOnce.Upon.A.Time.s05e01.WEB-DLRip.Rus.Eng.[To4ka.TV].avi
    Format : AVI
    Format/Info : Audio Video Interleave
    File size : 450 MiB
    Duration : 43mn 4s
    Overall bit rate : 1 462 Kbps
    Writing application : VirtualDubModRus 1.5.10.2 (build 2542/release)
    Writing library : VirtualDubMod build 2542/release
    Video
    ID : 0
    Format : MPEG-4 Visual
    Format profile : Advanced Simple@L5
    Format settings, BVOP : 1
    Format settings, QPel : No
    Format settings, GMC : No warppoints
    Format settings, Matrix : Default (MPEG)
    Codec ID : XVID
    Codec ID/Hint : XviD
    Duration : 43mn 4s
    Bit rate : 1 192 Kbps
    Width : 720 pixels
    Height : 400 pixels
    Display aspect ratio : 16:9
    Frame rate : 23.976 fps
    Color space : YUV
    Chroma subsampling : 4:2:0
    Bit depth : 8 bits
    Scan type : Progressive
    Compression mode : Lossy
    Bits/(Pixel*Frame) : 0.173
    Stream size : 367 MiB (82%)
    Writing library : XviD 73
    Audio #1
    ID : 1
    Format : MPEG Audio
    Format version : Version 1
    Format profile : Layer 3
    Mode : Joint stereo
    Mode extension : MS Stereo
    Codec ID : 55
    Codec ID/Hint : MP3
    Duration : 43mn 4s
    Bit rate mode : Constant
    Bit rate : 128 Kbps
    Channel(s) : 2 channels
    Sampling rate : 48.0 KHz
    Compression mode : Lossy
    Stream size : 39.4 MiB (9%)
    Alignment : Aligned on interleaves
    Interleave, duration : 42 ms (1.00 video frame)
    Interleave, preload duration : 504 ms
    Audio #2
    ID : 2
    Format : MPEG Audio
    Format version : Version 1
    Format profile : Layer 3
    Mode : Joint stereo
    Mode extension : MS Stereo
    Codec ID : 55
    Codec ID/Hint : MP3
    Duration : 43mn 4s
    Bit rate mode : Constant
    Bit rate : 128 Kbps
    Channel(s) : 2 channels
    Sampling rate : 48.0 KHz
    Compression mode : Lossy
    Stream size : 39.4 MiB (9%)
    Alignment : Aligned on interleaves
    Interleave, duration : 42 ms (1.00 video frame)
    Interleave, preload duration : 504 ms


    Скриншоты для ознакомления




    Онлайн видео Однажды в Сказке



    Однажды в Сказке/В Некотором Царстве/Once Upon a Time (2015) WEB-DLRip (сезон 5, серии 1 из 23) (To4ka) (обновляемая)
    загрузка...
    Рейтинг →
     (голосов: 1, оценка 5/5, голосовать можно 1 раз )

    Другие торренты по теме:

  • Однажды в сказке / В Некотором Царстве / Once Upon A Time (2014) HDTVRip [сезон 4, серия 1 из ] LevshaFilm
  • Однажды в Сказке / В Некотором Царстве / Once Upon a Time (2013) WEB-DLRip [сезон 4, серии 1 из ] To4ka (обновляемая) скачать через торрент бесплатно
  • Однажды в сказке / В Некотором Царстве / Once Upon a Time (2014) WEB-DLRip (сезон 4, серии 1-2 из ) Невафильм (oбновляемая)
  • Однажды в сказке / В Некотором Царстве / Once Upon a Time (2014) WEB-DL [H.264 / 1080p-LQ] (Сезон 4, серии 1-2 из 23) (Невафильм) (обновляемая) скачать через торрент бесплатно
  • Однажды в сказке / В Некотором Царстве / Once Upon a Time (2014) WEB-DL [H.264 / 720p-LQ] (Сезон 4, серии 1-2 из 23) (Невафильм) (обновляемая) скачать через торрент бесплатно
  • Однажды в сказке / В Некотором Царстве / Once Upon a Time (2014) WEB-DLRip (Сезон 4, серии 1-9 из 23) (Кубик в Кубе) (обновляемая)
  • Однажды в сказке / В Некотором Царстве / Once Upon a Time (2014) WEB-DL [H.264 / 720p-LQ] (Сезон 4, серии 1-9 из 23) (Кубик в Кубе) (обновляемая)
  • Однажды в сказке / Once Upon A Time (2011) WEB-DLRip (сезон 1-4, серии 1-78 из 89) (Невафильм) (обновляемая) скачать через торрент бесплатно


    • Комментарии (0):

      Информация

      Информация

        Посетители, находящиеся в группе Гости, не могут оставлять комментарии в данной новости.

        ↓ Меню




        ↓ Опрос

        Вы добавили сайт в закладки?
        Да
        Нет


        Top 10 за месяц (Фильмы)